Добрий динозавр / The Good Dinosaur (2015) 1080p 3D [Half OverUnder] Ukr/Eng Sub Eng

Нові коментарі

Нова тема   Відповісти
Автор Повідомлення
-VipeR- 
VIP


З нами з: 17.07.08
Востаннє: 22.08.17
Повідомлень: 289

2016-02-13 13:40  
Добрий динозавр / The Good Dinosaur (2015) 1080p 3D [Half OverUnder] Ukr/Eng Sub Eng

Добрий динозавр / The Good Dinosaur (2015) 1080p 3D [Half OverUnder] Ukr/Eng Sub Eng


Жанр: анімація, комедія, пригоди, сімейний
Країна: США



Кінокомпанія: Walt Disney Pictures, Pixar Animation Studios
Режисер: Пітер Сон
Актори: Джеффрі Райт, Маркус Скрібнер, Реймонд Очоа, Джек Брайт, Пітер Сон, Стів Зан, Сем Елліотт...

Сюжет:
Тільки уявіть, як виглядала б наша планета, якби астероїд, що знищив динозаврів, пролетів повз? Вони б не вимерли і жили серед нас зараз. Апатозавр по імені Арло незграбний і боязкий, але має велике добре серце. Він заводить незвичайного друга - людську дитину, яку звуть Спот. Хлопчик дикуватий, але дуже розумний. І хоча ця дивна парочка не відразу стає товаришами, вони допомагають один одному. Під час подорожі по суворих і загадкових місцях, Арло вчиться протистояти своїм страхам і дізнається, на що він дійсно здатний. Спот і динозавр зустрінуться із різними тваринами на своєму шляху, але не всі будуть до них доброзичливі.


Тривалість: 01:33:39
Якість: 1080p 3D [Half OVerUnder] by Ash61
Відео:
кодек:
розмір кадру: 1920 х 1080
бітрейт: 15,6 мб/с

Аудіо # 1:
мова: українська
переклад: професійний дубльований
кодек: 5.1
бітрейт: 1536 кб/с

Аудіо # 2:
мова: англійська
переклад: оригінал
кодек: 5.1
бітрейт: 1536 кб/с

Аудіо # 3:
мова: англійська
переклад: оригінал
кодек: 2.0
бітрейт: 320 кб/с (Коментарі)

Субтитри:
мова: англійська (Full,SDH,Commentary)
тип: програмні (м'які)
формат: *.srt
Info
Код:
General
Unique ID                      : 171731787288061873635286505358603059281 (0x813256D2CDF5459EB5115C048F740051)
Complete name                  : D:\3D\The Good Dinosaur (2015) 1080p 3D HalfOverUnder [ukr eng] sub [eng] [Hurtom].
Format                         :
Format version                 : Version 4 / Version 2
File size                      : 12.6 GiB
Duration                       : 1h 33mn
Overall bit rate               : 19.3 Mbps
Movie name                     : Хороший динозавр / The Good Dinosaur (2015) в 3Д
Encoded date                   : UTC 2016-04-02 08:10:29
Writing application            : mkvmerge v8.8.0 ('Wind at my back') 64bit
Writing library                : libebml v1.3.3 + libmatroska v1.4.4
Attachments                    : poster.jpg

Video
ID                             : 1
Format                         : AVC
Format/Info                    : Advanced Video Codec
Format profile                 : [email protected]
Format settings, CABAC         : Yes
Format settings, ReFrames      : 4 frames
Codec ID                       : V_MPEG4/ISO/AVC
Duration                       : 1h 33mn
Bit rate                       : 15.9 Mbps
Width                          : 1 920 pixels
Height                         : 1 080 pixels
Display aspect ratio           : 16:9
Frame rate mode                : Constant
Frame rate                     : 23.976 (24000/1001) fps
Color space                    : YUV
Chroma subsampling             : 4:2:0
Bit depth                      : 8 bits
Scan type                      : Progressive
Bits/(Pixel*Frame)             : 0.321
Stream size                    : 10.4 GiB (83%)
Title                          : by Ash61
Writing library                : core 146 r2538 121396c
Encoding settings              : cabac=1 / ref=4 / deblock=1:-3:-3 / analyse=0x3:0x113 / me=umh / subme=10 / psy=1 / psy_rd=1.00:0.00 / mixed_ref=1 / me_range=32 / chroma_me=1 / trellis=2 / 8x8dct=1 / cqm=0 / deadzone=21,11 / fast_pskip=1 / chroma_qp_offset=-2 / threads=12 / lookahead_threads=3 / sliced_threads=0 / nr=0 / decimate=1 / interlaced=0 / bluray_compat=0 / constrained_intra=0 / bframes=10 / b_pyramid=2 / b_adapt=2 / b_bias=0 / direct=3 / weightb=1 / open_gop=0 / weightp=2 / keyint=250 / keyint_min=23 / scenecut=40 / intra_refresh=0 / rc_lookahead=60 / rc=crf / mbtree=1 / crf=15.0 / qcomp=0.70 / qpmin=0 / qpmax=69 / qpstep=4 / vbv_maxrate=40000 / vbv_bufsize=30000 / crf_max=0.0 / nal_hrd=none / filler=0 / frame-packing=4 / ip_ratio=1.40 / aq=1:0.70
Language                       : English
Default                        : Yes
Forced                         : No

Audio #1
ID                             : 2
Format                         :
Format/Info                    : Digital Theater Systems
Mode                           : 16
Format settings, Endianness    : Big
Codec ID                       : A_DTS
Duration                       : 1h 33mn
Bit rate mode                  : Constant
Bit rate                       : 1 509 Kbps
Channel(s)                     : 6 channels
Channel positions              : Front: L C R, Side: L R, LFE
Sampling rate                  : 48.0 KHz
Frame rate                     : 93.750 fps (512 spf)
Bit depth                      : 24 bits
Compression mode               : Lossy
Delay relative to video        : 850ms
Stream size                    : 1 013 MiB (8%)
Title                          : 5.1 @ 1536 kbps
Language                       : Ukrainian
Default                        : Yes
Forced                         : Yes

Audio #2
ID                             : 3
Format                         :
Format/Info                    : Digital Theater Systems
Mode                           : 16
Format settings, Endianness    : Big
Codec ID                       : A_DTS
Duration                       : 1h 33mn
Bit rate mode                  : Constant
Bit rate                       : 1 509 Kbps
Channel(s)                     : 6 channels
Channel positions              : Front: L C R, Side: L R, LFE
Sampling rate                  : 48.0 KHz
Frame rate                     : 93.750 fps (512 spf)
Bit depth                      : 24 bits
Compression mode               : Lossy
Stream size                    : 1 011 MiB (8%)
Title                          : 5.1 @ 1536 kbps
Language                       : English
Default                        : No
Forced                         : No

Audio #3
ID                             : 4
Format                         : AC-3
Format/Info                    : Audio Coding 3
Mode extension                 : CM (complete main)
Format settings, Endianness    : Big
Codec ID                       : A_AC3
Duration                       : 1h 33mn
Bit rate mode                  : Constant
Bit rate                       : 320 Kbps
Channel(s)                     : 2 channels
Channel positions              : Front: L R
Sampling rate                  : 48.0 KHz
Frame rate                     : 31.250 fps (1536 spf)
Compression mode               : Lossy
Stream size                    : 214 MiB (2%)
Title                          : 2.0 @ 320 kbps - Commentary
Language                       : English
Default                        : No
Forced                         : No

Text #1
ID                             : 5
Format                         : UTF-8
Codec ID                       : S_TEXT/UTF8
Codec ID/Info                  : UTF-8 Plain Text
Duration                       : 1h 21mn
Bit rate                       : 23 bps
Count of elements              : 477
Stream size                    : 14.1 KiB (0%)
Title                          : full
Language                       : English
Default                        : No
Forced                         : No

Text #2
ID                             : 6
Format                         : UTF-8
Codec ID                       : S_TEXT/UTF8
Codec ID/Info                  : UTF-8 Plain Text
Duration                       : 1h 23mn
Bit rate                       : 32 bps
Count of elements              : 885
Stream size                    : 20.0 KiB (0%)
Title                          : SDH
Language                       : English
Default                        : No
Forced                         : No

Text #3
ID                             : 7
Format                         : UTF-8
Codec ID                       : S_TEXT/UTF8
Codec ID/Info                  : UTF-8 Plain Text
Duration                       : 1h 26mn
Bit rate                       : 140 bps
Count of elements              : 1810
Stream size                    : 89.1 KiB (0%)
Title                          : Commentary
Language                       : English
Default                        : No
Forced                         : No

Menu
00:00:00.000                   : :1. Asteroid
00:03:37.966                   : :2. Arlo Is Born
00:06:16.459                   : :3. Chores
00:08:14.160                   : :4. Make Your Mark
00:12:12.605                   : :5. Fireflies
00:14:33.913                   : :6. Meet Spot
00:17:42.352                   : :7. Arlo Steps Up
00:21:10.644                   : :8. Swept Away
00:22:58.167                   : :9. Wilderness
00:26:41.057                   : :10. Helpless
00:29:02.615                   : :11. Spot Investigates
00:33:10.363                   : :12. Snake Attack
00:35:28.668                   : :13. Pet Collector
00:38:14.458                   : :14. Working Together
00:41:08.840                   : :15. Orphan Spot
00:45:42.947                   : :16. Storm Fear
00:47:47.947                   : :17. Ambush
00:51:48.271                   : :18. T-Rexes
00:55:46.967                   : :19. Rustlers
01:00:22.952                   : :20. Campfire
01:03:59.001                   : :21. Arlo Herds
01:05:27.213                   : :22. Above the Clouds
01:07:11.777                   : :23. Spot Taken
01:11:06.427                   : :24. Pappa's Help
01:13:43.377                   : :25. Into the Storm
01:16:01.430                   : :26. Flash Flood
01:19:08.493                   : :27. Goodbye Spot
01:23:56.864                   : :28. Back Home
01:26:01.113                   : :29. End Credits
Скріншоти
Джерело: & & &
Особиста оцінка: 8 - мені сподобалося
Подяка Аноніму за українську доріжку.
Відео для перегляду на 3D обладнанні!


 Трекер:    Зареєстрований   

Завантажити / скачати мультфільм українською



відео для новачків



 Зареєстрований:   2016-04-02 11:46
 Розмір:   12.62 GB 
 Оцінка мультфільму:   10/10 (Голосів: 10)
   
Інші релізи
Nemess 
Новенький


З нами з: 30.09.13
Востаннє: 20.08.17
Повідомлень: 4

2016-02-28 12:20  
-VipeR-
гарна картинка і чудовий переклад
Дякую афтору релізу Happy!

-VipeR- 
VIP


З нами з: 17.07.08
Востаннє: 22.08.17
Повідомлень: 289

2016-04-02 11:48  
Роздачу оновлено

Замінено українську та англійську доріжку на 5.1 @ 1536.
Додано англійську доріжку з коментарями

QWERTYJJJJJJ 
Поважний учасник


З нами з: 06.11.12
Востаннє: 22.08.17
Повідомлень: 203

2016-04-02 21:46  
Єссс... Дочекався)) Вже декілька тижнів дивлюсь на російську ліцензію, але не качаю) А тут український переклад та ще й у такій відмінній якості. Дуже дякую за реліз)
puma133 
Новенький


З нами з: 09.05.09
Востаннє: 11.06.16
Повідомлень: 1

2016-06-08 22:17  
Окремо дорожку можна завантажити ?
andreu1999 
Свій


З нами з: 20.10.14
Востаннє: 20.08.17
Повідомлень: 89

2016-06-10 15:03  
Гарний мультфільм мені і моєму брату сподобався) 9/10
Ваш часовий пояс: GMT + 2 Години

Нова тема   Відповісти