Секрет у їхніх очах / Таємниця в їхніх очах / Secret in Their Eyes (2015) 720p 2xUkr/Eng | Sub Eng

Нові коментарі

Нова тема   Відповісти
Автор Повідомлення
11FrYkT 
Модератор відео


З нами з: 20.02.11
Востаннє: 07.03.21
Повідомлень: 7153

2016-02-12 23:30  
Секрет у їхніх очах / Таємниця в їхніх очах / Secret in Their Eyes (2015) 720p 2xUkr/Eng | Sub Eng

Секрет у їхніх очах / Таємниця в їхніх очах / Secret in Their Eyes (2015) 720p 2xUkr/Eng | Sub Eng

«Не відводьте погляд»

Жанр: детектив, трилер
Країна: США



Кінокомпанія: Gran Via, IM Global, Ingenious Media, Route One Films, SITE Productions, Union Investment Partners, Willie's Movies
Режисер: Біллі Рей
Актори: Джулія Робертс, Ніколь Кідман, Чіветель Еджіофор, Майкл Келлі, Джо Коул, Дін Норріс, Ліндон Сміт, Дон Гарві, Зоі Ґрегем, Росс Партрідж...

Сюжет:
Дружну команду слідчих викликали на справу. Рей, Джессіка і їхній керівник Клер, прибувають на місце злочину. Підліток-дівчинка була жорстоко вбита і залишена в сміттєвому баку. Справа набуває нового обороту, коли виявляється, що жертва - дочка одного зі слідчих, Джесс. Але вбивця вислизає з рук правосуддя через недостатність доказів, і шляхи друзів розходяться. Рей, який шукає винуватця тринадцять років, нарешті знаходить рішення і збирає стару команду. Але ніхто не готовий розкрити шокуючу таємницю, яка може призвести до руйнуючих наслідків особистої помсти.


Тривалість: 01:51:39
Якість: 720p

Відео:
кодек:
розмір кадру: 1280 х 534
бітрейт: 4917 кб/с

Аудіо # 1:
мова: українська
озвучення: професійний дубляж
кодек: 2.0 (стерео)
бітрейт: 192 кб/с

Аудіо # 2:
мова: українська
озвучення: професійне, багатоголосе закадрове
кодек: 2.0
бітрейт: 192 кб/с

Аудіо # 2:
мова: англійська
озвучення: оригінал
кодек: 5.1
бітрейт: 448 кб/с

Субтитри (Full, SDH):
мова: англійська
тип: програмні (м'які)
формат: *.srt
Info
Код:
General
Unique ID : 107135080539186339978314182471252097611 (0x50997749D7521C75D64306B3BD8ABA4B)
Complete name : D:\Secret in Their Eyes (2015) 720p [2xUKR_ENG] [Hurtom].
Format :
Format version : Version 4 / Version 2
File size : 4.60 GiB
Duration : 1 h 51 min
Overall bit rate : 5 892 kb/s
Movie name : Секрет у їхніх очах / Таємниця в їхніх очах / Secret in Their Eyes (2015)
Encoded date : UTC 2021-02-23 08:36:23
Writing application : v51.0.0 ('I Wish') 32-bit
Writing library : libebml v1.4.0 + v1.6.2
Cover : Yes
Attachments : cover

Video
ID : 1
Format : AVC
Format/Info : Advanced Video Codec
Format profile : [email protected]
Format settings, CABAC : Yes
Format settings, RefFrames : 12 frames
Codec ID : V_MPEG4/ISO/AVC
Duration : 1 h 51 min
Bit rate : 5 057 kb/s
Width : 1 280 pixels
Height : 534 pixels
Display aspect ratio : 2.40:1
Frame rate mode : Constant
Frame rate : 23.976 (24000/1001) FPS
Color space : YUV
Chroma subsampling : 4:2:0
Bit depth : 8 bits
Scan type : Progressive
Bits/(Pixel*Frame) : 0.309
Stream size : 3.94 GiB (86%)
Writing library : core 148 r2665kMod a01e339
Encoding settings : cabac=1 / ref=12 / deblock=1:-3:-3 / analyse=0x3:0x133 / me=umh / subme=10 / psy=1 / fade_compensate=0.00 / psy_rd=1.10:0.00 / mixed_ref=1 / me_range=24 / chroma_me=1 / trellis=2 / 8x8dct=1 / cqm=0 / deadzone=21,11 / fast_pskip=0 / chroma_qp_offset=-2 / threads=12 / lookahead_threads=3 / sliced_threads=0 / nr=0 / decimate=0 / interlaced=0 / bluray_compat=0 / constrained_intra=0 / fgo=0 / bframes=11 / b_pyramid=2 / b_adapt=2 / b_bias=0 / direct=3 / weightb=1 / open_gop=0 / weightp=2 / keyint=250 / keyint_min=23 / scenecut=40 / intra_refresh=0 / rc_lookahead=60 / rc=crf / mbtree=0 / crf=16.8000 / qcomp=0.65 / qpmin=0 / qpmax=69 / qpstep=4 / vbv_maxrate=62500 / vbv_bufsize=78125 / crf_max=0.0 / nal_hrd=none / filler=0 / ip_ratio=1.30 / pb_ratio=1.20 / aq=3:0.75
Language : English
Default : Yes
Forced : No
Color range : Limited
Matrix coefficients : BT.709

Audio #1
ID : 2
Format : AC-3
Format/Info : Audio Coding 3
Format settings, Endianness : Big
Codec ID : A_AC3
Duration : 1 h 51 min
Bit rate mode : Constant
Bit rate : 192 kb/s
Channel(s) : 2 channels
Channel positions : Front: L R
Sampling rate : 48.0 kHz
Frame rate : 31.250 FPS (1536 SPF)
Bit depth : 16 bits
Compression mode : Lossy
Stream size : 153 MiB (3%)
Title : DUB
Language : Ukrainian
Service kind : Complete Main
Default : Yes
Forced : Yes

Audio #2
ID : 3
Format : AC-3
Format/Info : Audio Coding 3
Format settings, Endianness : Big
Codec ID : A_AC3
Duration : 1 h 51 min
Bit rate mode : Constant
Bit rate : 192 kb/s
Channel(s) : 2 channels
Channel positions : Front: L R
Sampling rate : 48.0 kHz
Frame rate : 31.250 FPS (1536 SPF)
Bit depth : 16 bits
Compression mode : Lossy
Stream size : 153 MiB (3%)
Title : ТРК Україна
Language : Ukrainian
Service kind : Complete Main
Default : No
Forced : No

Audio #3
ID : 4
Format : AC-3
Format/Info : Audio Coding 3
Format settings, Endianness : Big
Codec ID : A_AC3
Duration : 1 h 51 min
Bit rate mode : Constant
Bit rate : 448 kb/s
Channel(s) : 6 channels
Channel positions : Front: L C R, Side: L R, LFE
Sampling rate : 48.0 kHz
Frame rate : 31.250 FPS (1536 SPF)
Bit depth : 16 bits
Compression mode : Lossy
Stream size : 358 MiB (8%)
Title : Original
Language : English
Service kind : Complete Main
Default : No
Forced : No

Text #1
ID : 5
Format : UTF-8
Codec ID : S_TEXT/UTF8
Codec ID/Info : UTF-8 Plain Text
Duration : 1 h 47 min
Bit rate : 56 b/s
Count of elements : 1333
Stream size : 44.4 KiB (0%)
Title : Full
Language : English
Default : No
Forced : No

Text #2
ID : 6
Format : UTF-8
Codec ID : S_TEXT/UTF8
Codec ID/Info : UTF-8 Plain Text
Duration : 1 h 47 min
Bit rate : 61 b/s
Count of elements : 1465
Stream size : 47.9 KiB (0%)
Title : Full (SDH)
Language : English
Default : No
Forced : No

Menu
00:00:00.000 : en:00:00:00.000
00:05:12.521 : en:00:05:12.521
00:10:52.235 : en:00:10:52.235
00:18:20.766 : en:00:18:20.766
00:22:41.402 : en:00:22:41.402
00:26:47.731 : en:00:26:47.731
00:34:30.860 : en:00:34:30.860
00:42:39.640 : en:00:42:39.640
00:46:31.789 : en:00:46:31.789
00:51:59.491 : en:00:51:59.491
00:56:16.498 : en:00:56:16.498
01:00:17.948 : en:01:00:17.948
01:05:47.902 : en:01:05:47.902
01:12:34.934 : en:01:12:34.934
01:17:29.645 : en:01:17:29.645
01:21:32.846 : en:01:21:32.846
01:25:23.118 : en:01:25:23.118
01:31:16.137 : en:01:31:16.137
01:37:19.500 : en:01:37:19.500
01:45:38.123 : en:01:45:38.123
Скріншоти





Подяка пану AngryBirdsUA за Аудіо №,1 POMEO за запис звуку з ТБ, пану Gelios за синхронізацію.

Джерело: &
Особиста оцінка: 0 - не дивився


 Трекер:    Зареєстрований   

Завантажити / скачати фільм українською



відео для новачків



 Зареєстрований:   2021-02-23 14:41
 Розмір:   4.6 GB 
 Оцінка фільму:   8.6/10 (Голосів: 40)
   
Bohdan237 
Відео Гуртом - фільмокрай
Відео Гуртом - фільмокрай


З нами з: 12.02.12
Востаннє: 08.03.21
Повідомлень: 1286

2016-02-13 00:12  
На кращий звук можна очікувати?
рк1 
Новенький


З нами з: 03.05.14
Востаннє: 07.03.21
Повідомлень: 1

2016-02-13 11:40  
Дуже раджу чекати та подивитися - емоційно сильно та в кінці несподівано.
K2 
Поважний учасник


З нами з: 02.11.08
Востаннє: 07.03.21
Повідомлень: 243

2016-02-15 13:43  
Шкода головного героя..життя могло скластись зовсім по-іншому.
Фільм сподобавсь!

Alexaxandroo 
Новенький


З нами з: 08.06.13
Востаннє: 08.03.21
Повідомлень: 2

2016-02-21 20:06  
"But the ages sync up"- переклали як "вік співпадає". Cry (1) Не сходиться, не збігається, не зіставляється, а співпадає!!! Ото я так тих перекладачів і уявляю, як вони гуртом "спів-падають" з височенного хмарочосу. Wide grin
Dima_R 
Новенький


З нами з: 06.02.10
Востаннє: 28.02.21
Повідомлень: 9

2016-02-29 13:04  
рк1 написано:
Дуже раджу чекати та подивитися - емоційно сильно та в кінці несподівано.


Доречі, це рімейк. Аргентинський фільм-першоджерело емоційно сильніший, як на мене.

11FrYkT 
Модератор відео


З нами з: 20.02.11
Востаннє: 07.03.21
Повідомлень: 7153

2016-09-05 16:23  
05.09.2016 Роздачу оновлено


Замінив доріжку з телеканалу Україна


золото на тиждень для заохочення підтримки

RockKinder 
Свій


З нами з: 09.01.09
Востаннє: 20.02.21
Повідомлень: 63

2016-10-10 17:58  
А чому не зробити реліз де доріжка з дубляжем буде вшита в контейнер? Більшість програвачів в телевізорах не можуть зчитувати доріжку з іншого файлу...
[email protected] 
VIP


З нами з: 24.03.17
Востаннє: 07.03.21
Повідомлень: 696

2019-01-24 23:38  
Мені фільм сподрбався, абсолютно непередбачуваний в кінці.
пан Струмок 
VIP


З нами з: 19.02.13
Востаннє: 07.03.21
Повідомлень: 317

2021-03-01 19:25  
не гич що, не складу не ладу
Ваш часовий пояс: GMT + 2 Години

Нова тема   Відповісти