Третя Світова Війна: В командному пункті / World War Three: Inside the War Room (2016) 720p Eng | sub Ukr/Eng

Нові коментарі

Нова тема   Відповісти
Автор Повідомлення
evpdzen 
Поважний учасник


З нами з: 17.03.10
Востаннє: 19.10.17
Повідомлень: 187

2016-02-12 15:44  
Третя Світова Війна: В командному пункті / World War Three: Inside the War Room (2016) 720p Eng | sub Ukr/Eng

Третя Світова Війна: В командному пункті / World War Three: Inside the War Room (2016) 720p Eng | sub Ukr/Eng


Жанр: документальний, катастрофа, трагедія, психологічний
Країна: Великобританія

Кінокомпанія: BBC Two
Режисер: Габріель Рендж
Актори: Девід Аннен, Арунас Бронусанс, Кароліс Бутвідас, Регимантас Івікас та ін.

Сюжет:
Після кризи в України та участі Росії в сірійських подіях, світ став ближче до протистояння наддержав, ніж коли-небудь після закінчення холодної війни. Тепер у командному пункті зібралися колишні британські військові і дипломатичні діячі, щоб провести військову гру з гіпотетичних "активних бойових дій" в Східній Європі, в тому числі немислимого - ядерного протистояння.


Тривалість: 00:59:15
Якість:
Відео:
кодек:
розмір кадру: 1280 х 720
бітрейт: 2436 кб/с

Аудіо:
мова: англійська
переклад: оригінал
кодек: 2.0
бітрейт: 125 кб/с

Субтитри:
мова: українська evpdzen
тип: програмні (м'які)
формат: *.srt

Субтитри:
мова: англійська
тип: програмні (м'які)
формат: *.srt
Info
Complete name : BBC - World War Three. Inside the War Room.
Format :
Format version : Version 4 / Version 2
File size : 1.06 GiB
Duration : 59mn 15s
Overall bit rate : 2 564 Kbps
Encoded date : UTC 2016-02-12 11:48:41
Writing application : mkvmerge v8.8.0 ('Wind at my back') 64bit
Writing library : libebml v1.3.3 + libmatroska v1.4.4

Video
ID : 1
Format : AVC
Format/Info : Advanced Video Codec
Format profile : [email protected]
Format settings, CABAC : Yes
Format settings, ReFrames : 6 frames
Codec ID : V_MPEG4/ISO/AVC
Duration : 59mn 15s
Bit rate : 2 436 Kbps
Width : 1 280 pixels
Height : 720 pixels
Display aspect ratio : 16:9
Frame rate mode : Constant
Frame rate : 25.000 fps
Color space : YUV
Chroma subsampling : 4:2:0
Bit depth : 8 bits
Scan type : Progressive
Bits/(Pixel*Frame) : 0.106
Stream size : 1.01 GiB (95%)
Title : bbc.WorldWar3.InsideTheWarRoom720pHDTVh264
Writing library : core 148 r2665 a01e339
Encoding settings : cabac=1 / ref=6 / deblock=1:0:0 / analyse=0x3:0x113 / me=umh / subme=9 / psy=1 / psy_rd=1.00:0.00 / mixed_ref=1 / me_range=24 / chroma_me=1 / trellis=1 / 8x8dct=1 / cqm=0 / deadzone=21,11 / fast_pskip=0 / chroma_qp_offset=-2 / threads=3 / lookahead_threads=1 / sliced_threads=0 / nr=0 / decimate=1 / interlaced=0 / bluray_compat=0 / constrained_intra=0 / bframes=5 / b_pyramid=2 / b_adapt=2 / b_bias=0 / direct=1 / weightb=1 / open_gop=0 / weightp=2 / keyint=250 / keyint_min=25 / scenecut=40 / intra_refresh=0 / rc_lookahead=40 / rc=crf / mbtree=1 / crf=19.0 / qcomp=0.60 / qpmin=0 / qpmax=69 / qpstep=4 / ip_ratio=1.40 / aq=1:1.00
Language : English
Default : Yes
Forced : No

Audio
ID : 2
Format :
Format/Info : Advanced Audio Codec
Format profile : LC
Codec ID : A_AAC
Duration : 59mn 14s
Bit rate : 125 Kbps
Channel(s) : 2 channels
Channel positions : Front: L R
Sampling rate : 48.0 KHz
Frame rate : 46.875 fps (1024 spf)
Compression mode : Lossy
Delay relative to video : 9ms
Stream size : 53.0 MiB (5%)
Title : eng.AAC125 Kbps2ch 48.0khz
Language : English
Default : Yes
Forced : No

Text #1
ID : 3
Format : UTF-8
Codec ID : S_TEXT/UTF8
Codec ID/Info : UTF-8 Plain Text
Duration : 58mn 20s
Bit rate : 109 bps
Count of elements : 944
Stream size : 46.6 KiB (0%)
Title : eng.srt.original
Language : English
Default : No
Forced : No

Text #2
ID : 4
Format : UTF-8
Codec ID : S_TEXT/UTF8
Codec ID/Info : UTF-8 Plain Text
Duration : 58mn 20s
Bit rate : 181 bps
Count of elements : 945
Stream size : 77.5 KiB (0%)
Title : ukr.srt.by.evp.dze
Language : Ukrainian
Default : Yes
Forced : No
Скріншоти
Джерело:
Особиста оцінка: 10 - без зайвих вагань рекомендую всім!


Золотий реліз (завантажене не впливає на рейтинг)
 Трекер:    Зареєстрований   

Завантажити / скачати фільм українською



відео для новачків



 Зареєстрований:   2016-02-12 15:44
 Розмір:   1.06 GB 
 Оцінка фільму:   9.9/10 (Голосів: 25)
   
Virake 
Localize Team
Localize Team


З нами з: 07.07.09
Востаннє: 20.10.17
Повідомлень: 4609

2016-02-12 17:22  
BBC не довіряю в цій темі.
wrongman 
Свій


З нами з: 11.11.08
Востаннє: 18.10.17
Повідомлень: 143

2016-02-13 01:09  
Багато російзмів у субтитрах.
evpdzen 
Поважний учасник


З нами з: 17.03.10
Востаннє: 19.10.17
Повідомлень: 187

2016-02-13 10:40  
wrongman написано:
Багато російзмів у субтитрах.

Тобто русизмів? Наприклад?

igor911 
Відео Гуртом
Відео Гуртом


З нами з: 18.01.08
Востаннє: 20.10.17
Повідомлень: 7931

2016-02-13 12:19  
evpdzen, варто перевіряти саби (у ворді, наприклад) на помилки: на першому скріні "забеСпечує", на 4-у "уникнути найгіршИЙ розвитку подій"
evpdzen 
Поважний учасник


З нами з: 17.03.10
Востаннє: 19.10.17
Повідомлень: 187

2016-02-13 12:28  
Стосовно друкарських помилок згоден. Недолік "оперативної" роботи пізно ввечері після трудового дня))
Згодом трохи звільнюся і підчищу. Дякую за зауваження.

ika1963 
Відео Гуртом - дизайнер
Відео Гуртом - дизайнер


З нами з: 13.05.10
Востаннє: 20.10.17
Повідомлень: 232

2016-02-14 01:00  
BBC Two молодці, - самокритично себе, Європу та NATO оцінили. Цей фільм треба показувати в прайм-тайм на наших каналах.
Ryoga 
Свій


З нами з: 19.02.12
Востаннє: 18.10.17
Повідомлень: 58

2016-02-24 20:18  
Викладіть будь ласка саби окремо. В релізі або в отій темі. Дякую.
van4567 
Новенький


З нами з: 30.11.14
Востаннє: 21.03.17
Повідомлень: 1

2016-02-27 14:30  
Викладить на ютуб
Ua.bos_01 
VIP


З нами з: 22.06.15
Востаннє: 20.10.17
Повідомлень: 1419

2016-03-23 19:00  
Загалом досить не погано вийшло! Змістовно та в більшості випадків реалістично, за виключенням окремих нюансів, досить пристойна програма.
helm2004 
Частий відвідувач


З нами з: 18.11.08
Востаннє: 19.10.17
Повідомлень: 28

2017-02-06 19:24  
От чому на таке кіно не зробити фріліч?
Patriot_ukr 
VIP


З нами з: 06.04.15
Востаннє: 19.10.17
Повідомлень: 1796

2017-02-06 20:36  
helm2004
Бо воно важить 1.06 GB?

Virake 
Localize Team
Localize Team


З нами з: 07.07.09
Востаннє: 20.10.17
Повідомлень: 4609

2017-02-06 21:01  
helm2004 написано:
От чому на таке кіно не зробити фріліч?

evpdzen написано:
Золотий реліз (завантажене не впливає на рейтинг)
ну і ну...
yura1717 
Новенький


З нами з: 07.02.11
Востаннє: 30.08.17
Повідомлень: 4

2017-02-07 14:48  
Дивитися всім, обовязково!
FisherCS 
Новенький


З нами з: 13.01.13
Востаннє: 15.09.17
Повідомлень: 12

2017-02-14 11:45  
А так воно і буде, якщо західніше не перестануть бути вічно занепокоєними і не почнуть діяти.
pathe 
Новенький


З нами з: 08.01.17
Востаннє: 20.10.17
Повідомлень: 1

2017-06-25 19:22  
Файне кіно, дякую.
Ваш часовий пояс: GMT + 2 Години

Нова тема   Відповісти