Містер Пібоді та Шерман / Mr. Peabody & Sherman (2014) 1080p 3D [Half SideBySide] Ukr/Eng | Sub Ukr/Eng

Нові коментарі

Нова тема   Відповісти
Автор Повідомлення
-VipeR- 
VIP


З нами з: 17.07.08
Востаннє: 22.08.17
Повідомлень: 289

2016-02-08 17:38  
Містер Пібоді та Шерман / Mr. Peabody & Sherman (2014) 1080p 3D [Half SideBySide] Ukr/Eng | Sub Ukr/Eng

Містер Пібоді та Шерман / Mr. Peabody & Sherman (2014) 1080p 3D [Half SideBySide] Ukr/Eng | Sub Ukr/Eng


Жанр: анімація, фантастика, пригодницький, сімейний, дитячий
Країна: США



Кінокомпанія: DreamWorks Animation, Pacific Data Images (PDI), Bullwinkle Studios
Режисер: Роб Мінкофф / Rob Minkoff
Актори: Еріель Вінтер / Ariel Winter, Леслі Манн / Leslie Mann, Еллісон Дженні / Allison Janney, Патрік Варбертон / Patrick Warburton, Стенлі Туччі / Stanley Tucci, Тай Бурелл / Ty Burrell, Мел Брукс / Mel Brooks, Каран Брер / Karan Brar, Стівен Колбер / Stephen Colbert / Макс Чарльз / Max Charles та інші.

Сюжет:
Містер Пібоді це собака-геній, якому разом з хлопчиком Шерманом належить відправитися в небезпечну подорожі крізь простір і час. Пригоди обіцяють бути небезпечними і непростими. Подорожуючи в часі, містер Пібоді і Шерман стають мимовільними учасниками подій, що мають серйозне історичне значення для всієї планети. Адже завжди потрібно дотримуватися правил подорожі в часі, які герої випадково порушують і тепер їм належить врятувати історію.


Тривалість: 01:32:24
Якість: 1080p 3D [Half SideBySide]
Відео:
кодек:
розмір кадру: 1920 х 1080
бітрейт: 8,9 Мбіт/с

Аудіо # 1:
мова: українська
переклад: професійний дубльований (Дубляж - BD CEE)
кодек: 5.1
бітрейт: 448 кб/с

Аудіо # 2:
мова: англійська
переклад: оригінал
кодек: 5.1
бітрейт: 1509 кб/с

Джерело озвучення:


Субтитри:
мова: українська (повні,форсовані)
тип: програмні (м'які)
формат: *.srt

Субтитри:
мова: англійська(повні, SDH, кольорові)
тип: програмні (м'які)
формат: *.srt
Info
General
Unique ID : 237786867751445874185252342577758261202 (0xB2E415BBE7BAC7DAB53FC0330780CFD2)
Complete name : D:\3D\Мультики\Mr. Peabody & Sherman (2014) 1080p 3D [Half SideBySide] [UKR_ENG] [Hurtom].
Format :
Format version : Version 4 / Version 2
File size : 7.03 GiB
Duration : 1h 32mn
Overall bit rate : 10.9 Mbps
Movie name : Mr.Peabody.And.Sherman.3D.H-SBS.[torren53d.ru]
Encoded date : UTC 2016-02-09 09:25:23
Writing application : mkvmerge v8.8.0 ('Wind at my back') 64bit
Writing library : libebml v1.3.3 + libmatroska v1.4.4

Video
ID : 1
Format : AVC
Format/Info : Advanced Video Codec
Format profile : [email protected]
Format settings, CABAC : Yes
Format settings, ReFrames : 2 frames
Codec ID : V_MPEG4/ISO/AVC
Duration : 1h 32mn
Bit rate : 8 926 Kbps
Width : 1 920 pixels
Height : 1 080 pixels
Display aspect ratio : 16:9
Frame rate mode : Constant
Frame rate : 23.976 (24000/1001) fps
Color space : YUV
Chroma subsampling : 4:2:0
Bit depth : 8 bits
Scan type : Progressive
Bits/(Pixel*Frame) : 0.180
Stream size : 5.76 GiB (82%)
Writing library : core
Default : No
Forced : No
Color range : Limited
Color primaries : BT.709
Transfer characteristics : BT.709
Matrix coefficients : BT.709

Audio #1
ID : 2
Format : AC-3
Format/Info : Audio Coding 3
Mode extension : CM (complete main)
Format settings, Endianness : Big
Codec ID : A_AC3
Duration : 1h 32mn
Bit rate mode : Constant
Bit rate : 448 Kbps
Channel(s) : 6 channels
Channel positions : Front: L C R, Side: L R, LFE
Sampling rate : 48.0 KHz
Frame rate : 31.250 fps (1536 spf)
Compression mode : Lossy
Stream size : 296 MiB (4%)
Title : 5.1 @ 448 kbps
Language : Ukrainian
Default : Yes
Forced : Yes

Audio #2
ID : 3
Format :
Format/Info : Digital Theater Systems
Format profile : ES Matrix / Core
Mode : 16
Format settings, Endianness : Big
Codec ID : A_DTS
Duration : 1h 32mn
Bit rate mode : Constant
Bit rate : 1 509 Kbps
Channel(s) : 7 channels / 6 channels
Channel positions : Front: L C R, Side: L R, Back: C, LFE / Front: L C R, Side: L R, LFE
Sampling rate : 48.0 KHz
Frame rate : 93.750 fps (512 spf)
Bit depth : 24 bits
Compression mode : Lossy
Delay relative to video : 11ms
Stream size : 998 MiB (14%)
Title : 5.1 @ 1536 kbps
Language : English
Default : No
Forced : No

Text #1
ID : 4
Format : UTF-8
Codec ID : S_TEXT/UTF8
Codec ID/Info : UTF-8 Plain Text
Duration : 1h 28mn
Bit rate : 0 bps
Count of elements : 8
Stream size : 358 Bytes (0%)
Title : Forced
Language : Ukrainian
Default : Yes
Forced : Yes

Text #2
ID : 5
Format : UTF-8
Codec ID : S_TEXT/UTF8
Codec ID/Info : UTF-8 Plain Text
Duration : 1h 23mn
Bit rate : 115 bps
Count of elements : 1439
Stream size : 70.8 KiB (0%)
Title : Full
Language : Ukrainian
Default : No
Forced : No

Text #3
ID : 6
Format : UTF-8
Codec ID : S_TEXT/UTF8
Codec ID/Info : UTF-8 Plain Text
Duration : 1h 24mn
Bit rate : 71 bps
Count of elements : 1584
Stream size : 44.3 KiB (0%)
Title : Full
Language : English
Default : No
Forced : No

Text #4
ID : 7
Format : UTF-8
Codec ID : S_TEXT/UTF8
Codec ID/Info : UTF-8 Plain Text
Duration : 1h 24mn
Bit rate : 78 bps
Count of elements : 1742
Stream size : 48.3 KiB (0%)
Title : SDH
Language : English
Default : No
Forced : No

Text #5
ID : 8
Format : UTF-8
Codec ID : S_TEXT/UTF8
Codec ID/Info : UTF-8 Plain Text
Duration : 1h 24mn
Bit rate : 97 bps
Count of elements : 1745
Stream size : 60.0 KiB (0%)
Title : SDH (Colored)
Language : English
Default : No
Forced : No

Menu #1
00:00:00.000 : en:(01)00:00:00:000
00:03:48.061 : en:(02)00:03:48:061
00:07:12.223 : en:(03)00:07:12:223
00:11:02.495 : en:(04)00:11:02:495
00:13:30.017 : en:(05)00:13:30:017
00:17:29.465 : en:(06)00:17:29:465
00:21:48.515 : en:(07)00:21:48:515
00:26:39.306 : en:(08)00:26:39:306
00:28:40.176 : en:(09)00:28:40:176
00:30:53.101 : en:(10)00:30:53:101
00:33:57.452 : en:(11)00:33:57:452
00:35:29.919 : en:(12)00:35:29:919
00:37:47.181 : en:(13)00:37:47:181
00:41:27.651 : en:(14)00:41:27:651
00:44:47.685 : en:(15)00:44:47:685
00:48:16.351 : en:(16)00:48:16:351
00:51:48.980 : en:(17)00:51:48:980
00:54:56.543 : en:(18)00:54:56:543
00:58:32.800 : en:(19)00:58:32:800
01:00:49.187 : en:(20)01:00:49:187
01:02:53.186 : en:(21)01:02:53:186
01:04:39.083 : en:(22)01:04:39:083
01:08:22.264 : en:(23)01:08:22:264
01:11:13.727 : en:(24)01:11:13:727
01:14:52.654 : en:(25)01:14:52:654
01:20:27.447 : en:(26)01:20:27:447
01:21:40.312 : en:(27)01:21:40:312
01:22:39.579 : en:(28)01:22:39:579
01:32:29.293 : en:(29)01:32:29:293

Menu #2
00:00:00.000 : en:00:00:00.000
00:03:48.061 : en:00:03:48.061
00:07:12.223 : en:00:07:12.223
00:11:02.495 : en:00:11:02.495
00:13:30.018 : en:00:13:30.018
00:17:29.465 : en:00:17:29.465
00:21:48.516 : en:00:21:48.516
00:26:39.306 : en:00:26:39.306
00:28:40.177 : en:00:28:40.177
00:30:53.101 : en:00:30:53.101
00:33:57.452 : en:00:33:57.452
00:35:29.919 : en:00:35:29.919
00:37:47.182 : en:00:37:47.182
00:41:27.652 : en:00:41:27.652
00:44:47.685 : en:00:44:47.685
00:48:16.352 : en:00:48:16.352
00:51:48.981 : en:00:51:48.981
00:54:56.543 : en:00:54:56.543
00:58:32.801 : en:00:58:32.801
01:00:49.187 : en:01:00:49.187
01:02:53.186 : en:01:02:53.186
01:04:39.084 : en:01:04:39.084
01:08:22.265 : en:01:08:22.265
01:11:13.728 : en:01:11:13.728
01:14:52.655 : en:01:14:52.655
01:20:27.448 : en:01:20:27.448
01:21:40.312 : en:01:21:40.312
01:22:39.580 : en:01:22:39.580
Скріншоти
Джерело:
Особиста оцінка: 0 - не дивився

ВІДЕО ДЛЯ ПЕРЕГЛЯДУ НА 3D ОБЛАДНАННІ


 Трекер:    Зареєстрований   

Завантажити / скачати мультфільм українською



відео для новачків



 Зареєстрований:   2016-02-09 12:59
 Розмір:   7.03 GB 
 Оцінка мультфільму:   10/10 (Голосів: 5)
   
Ваш часовий пояс: GMT + 2 Години

Нова тема   Відповісти