Ріо 2 / Rio 2 (2014) 1080p 3D [Half OverUnder] Ukr/Eng | Sub Ukr/Eng

Нові коментарі

Нова тема   Відповісти
Автор Повідомлення
-VipeR- 
VIP


З нами з: 17.07.08
Востаннє: 20.08.17
Повідомлень: 289

2016-02-07 13:30  
Ріо 2 / Rio 2 (2014) 1080p 3D [Half OverUnder] Ukr/Eng | Sub Ukr/Eng

Ріо 2 / Rio 2 (2014) 1080p 3D [Half OverUnder] Ukr/Eng | Sub Ukr/Eng


Жанр: анімація, пригодницький, комедія, сімейний
Країна: США



Кінокомпанія: Twentieth Century Fox Animation, Blue Sky Studios
Режисер: Карлос Салдана / Carlos Saldanha
Актори: Енн Гетевей / Anne Hathaway, Джесі Айзенберґ / Jesse Eisenberg, Леслі Ман / Leslie Mann, Джеймі Фокс / Jamie Foxx, Родріґо Санторо / Rodrigo Santoro, Джемейн Клемент / Jemaine Clement, Джон Леґуізамо / John Leguizamo та інші

Сюжет:
Блю, Джевел і їх троє дітей живуть щасливим життям в чарівному місті Ріо-де-Жанейро. Коли Джевел вирішує, що їх дітям потрібно навчитися жити як справжнім птахам, вона наполягає на авантюрній поїздці в нетрі річки Амазонки. Там, намагаючись вписатися в нове оточення, Блю починає турбуватися, що може втратити Джевел і дітей, що йдуть на поклик дикої природи...


Тривалість: 01:41:10
Якість: 1080p 3D [Half OverUnder] [Ash61]
Відео:
кодек:
розмір кадру: 1920 х 1080
бітрейт: 8872 кб/с

Аудіо # 1:
мова: українська
переклад: професійний дубльований
кодек: 5.1
бітрейт: 448 кб/с

Аудіо # 2:
мова: англійська
переклад: оригінал
кодек: 5.1
бітрейт: 640 кб/с

Джерело озвучення:


Субтитри:
мова: українська
тип: програмні (м'які)
формат: *.srt

Субтитри:
мова: англійська (Full, SDH-COLORED)
тип: програмні (м'які)
формат: *.srt
Info
General
Unique ID : 203615631323160674881253206249613061458 (0x992EF1B3E23F7EF897D4F96C5B7C6D52)
Complete name : D:\3D\Rio2 (2014 ) 1080p 3D Ukr Eng Half OverUnder [Hurtom].
Format :
Format version : Version 4 / Version 2
File size : 7.18 GiB
Duration : 1h 41mn
Overall bit rate : 10.2 Mbps
Movie name : Рио 2 / Rio 2 (2014) 3D
Encoded date : UTC 2016-02-07 09:29:34
Writing application : mkvmerge v8.8.0 ('Wind at my back') 64bit
Writing library : libebml v1.3.3 + libmatroska v1.4.4
DURATION : 01:31:38.409000000
NUMBER_OF_FRAMES : 2445
NUMBER_OF_BYTES : 119770
_STATISTICS_WRITING_APP : mkvmerge v8.8.0 ('Wind at my back') 64bit
_STATISTICS_WRITING_DATE_UTC : 2016-02-07 09:29:34
_STATISTICS_TAGS : BPS DURATION NUMBER_OF_FRAMES NUMBER_OF_BYTES

Video
ID : 1
Format : AVC
Format/Info : Advanced Video Codec
Format profile : [email protected]
Format settings, CABAC : Yes
Format settings, ReFrames : 4 frames
Codec ID : V_MPEG4/ISO/AVC
Duration : 1h 41mn
Bit rate : 8 872 Kbps
Width : 1 920 pixels
Height : 1 080 pixels
Display aspect ratio : 16:9
Frame rate mode : Constant
Frame rate : 23.976 fps
Color space : YUV
Chroma subsampling : 4:2:0
Bit depth : 8 bits
Scan type : Progressive
Bits/(Pixel*Frame) : 0.178
Stream size : 6.27 GiB (87%)
Title : by Ash61
Writing library : core 138 r2358 9e941d1
Encoding settings : cabac=1 / ref=4 / deblock=1:-3:-3 / analyse=0x3:0x113 / me=umh / subme=10 / psy=1 / psy_rd=1.00:0.15 / mixed_ref=1 / me_range=32 / chroma_me=1 / trellis=2 / 8x8dct=1 / cqm=0 / deadzone=21,11 / fast_pskip=1 / chroma_qp_offset=-3 / threads=12 / lookahead_threads=2 / sliced_threads=0 / nr=0 / decimate=1 / interlaced=0 / bluray_compat=0 / constrained_intra=0 / bframes=9 / b_pyramid=2 / b_adapt=2 / b_bias=0 / direct=3 / weightb=1 / open_gop=0 / weightp=2 / keyint=250 / keyint_min=23 / scenecut=40 / intra_refresh=0 / rc_lookahead=60 / rc=crf / mbtree=1 / crf=17.0 / qcomp=0.70 / qpmin=0 / qpmax=69 / qpstep=4 / vbv_maxrate=40000 / vbv_bufsize=30000 / crf_max=0.0 / nal_hrd=none / frame-packing=4 / ip_ratio=1.40 / aq=1:0.70
Language : English
Default : Yes
Forced : No
DURATION : 01:41:10.148000000
NUMBER_OF_FRAMES : 145538
NUMBER_OF_BYTES : 6883039367
_STATISTICS_WRITING_APP : mkvmerge v8.8.0 ('Wind at my back') 64bit
_STATISTICS_WRITING_DATE_UTC : 2016-02-07 09:29:34
_STATISTICS_TAGS : BPS DURATION NUMBER_OF_FRAMES NUMBER_OF_BYTES

Audio #1
ID : 2
Format : AC-3
Format/Info : Audio Coding 3
Mode extension : CM (complete main)
Format settings, Endianness : Big
Codec ID : A_AC3
Duration : 1h 41mn
Bit rate mode : Constant
Bit rate : 448 Kbps
Channel count : 6 channels
Channel positions : Front: L C R, Side: L R, LFE
Sampling rate : 48.0 KHz
Bit depth : 16 bits
Compression mode : Lossy
Stream size : 324 MiB (4%)
Title : Дубляж - BD CEE
Language : Ukrainian
Default : Yes
Forced : No

Audio #2
ID : 3
Format : AC-3
Format/Info : Audio Coding 3
Mode extension : CM (complete main)
Format settings, Endianness : Big
Codec ID : A_AC3
Duration : 1h 41mn
Bit rate mode : Constant
Bit rate : 640 Kbps
Channel count : 6 channels
Channel positions : Front: L C R, Side: L R, LFE
Sampling rate : 48.0 KHz
Bit depth : 16 bits
Compression mode : Lossy
Stream size : 463 MiB (6%)
Title : Original - BD 3D
Language : English
Default : No
Forced : No

Text #1
ID : 4
Format : UTF-8
Codec ID : S_TEXT/UTF8
Codec ID/Info : UTF-8 Plain Text
Language : Ukrainian
Default : Yes
Forced : No

Text #2
ID : 5
Format : UTF-8
Codec ID : S_TEXT/UTF8
Codec ID/Info : UTF-8 Plain Text
Language : English
Default : No
Forced : No

Text #3
ID : 6
Format : UTF-8
Codec ID : S_TEXT/UTF8
Codec ID/Info : UTF-8 Plain Text
Language : English
Default : No
Forced : No

Menu
00:00:00.000 : :1
00:03:10.814 : :2
00:05:14.314 : :3
00:08:49.361 : :4
00:13:02.239 : :5
00:17:36.305 : :6
00:19:19.407 : :7
00:22:30.347 : :8
00:26:48.690 : :9
00:29:00.154 : :10
00:30:59.691 : :11
00:33:46.566 : :12
00:36:34.190 : :13
00:39:20.231 : :14
00:41:32.655 : :15
00:45:05.119 : :16
00:47:23.090 : :17
00:49:58.161 : :18
00:52:05.454 : :19
00:55:38.918 : :20
00:58:10.903 : :21
01:02:11.393 : :22
01:04:38.081 : :23
01:07:03.936 : :24
01:09:18.194 : :25
01:10:21.341 : :26
01:15:17.762 : :27
01:17:00.157 : :28
01:21:41.854 : :29
01:25:24.618 : :30
01:29:42.710 : :31
01:32:27.958 : :32
Скріншоти
Джерело: &
Особиста оцінка: 8 - мені сподобалося

Відео для перегляду на 3D обладнанні!


 Трекер:    Зареєстрований   

Завантажити / скачати мультфільм українською



відео для новачків



 Зареєстрований:   2016-02-07 13:30
 Розмір:   7.18 GB 
 Оцінка мультфільму:   8.7/10 (Голосів: 13)
   
Інші релізи
   Ріо 2 / Rio 2 (2014) Blu-ray CEE Multi | Sub Multi smak2001  0 / 1   43.02 GB   2014-07-13 16:58 
   Ріо 2 / Rio 2 (2014) 720p-mini (60fps) Drool  4 / 0   3.4 GB   2014-07-05 12:08 
   Ріо 2 / Rio 2 (2014) 1080p Ukr/Eng | Sub Ukr/Eng 11FrYkT  11 / 0   8.24 GB   2014-07-04 10:43 
   Ріо 2 / Rio 2 (2014) AVC patriot2305  49 / 0   2.08 GB   2014-07-04 09:52 
   Ріо 2 / Rio 2 (2014) 720p Ukr/Eng | Sub Ukr/Eng 11FrYkT  10 / 0   3.93 GB   2014-07-04 09:35 
Ваш часовий пояс: GMT + 2 Години

Нова тема   Відповісти