Епік / Epic (2013) 1080p 3D [Half OverUnder] Ukr/Eng | Sub Ukr/Eng

Нові коментарі

Нова тема   Відповісти
Автор Повідомлення
-VipeR- 
VIP


З нами з: 17.07.08
Востаннє: 16.08.17
Повідомлень: 289

2016-02-07 11:49  
Епік / Epic (2013) 1080p 3D [Half OverUnder] Ukr/Eng | Sub Ukr/Eng

Епік / Epic (2013) 1080p 3D [Half OverUnder] Ukr/Eng | Sub Ukr/Eng


Жанр: анімація, пригоди, фентезі
Країна: США



Кінокомпанія: Twentieth Century Fox
Режисер: Кріс Уедж
Актори: Джейсон Судейкіс, Аманда Сейфрід, Бейонс Ноулз, Джош Хатчерсон, Джуда Фрідлендер, Крістоф Вальц

Сюжет:
Сюжет фільму розповість про те, як Мері, дівчинка-підліток, потрапляє в світ Листяних Людей. Це істоти, схожі на людей, але дуже маленьких розмірів. Вони захищають зелений світ всієї планети. На цей раз їх викликають жучки, коли зеленим загрожує небезпека у вигляді дивних монстрів, які знищують все, що росте. Ними керує зла павучиха. Разом із зеленими лицарями, Мері повинна врятувати природу.


Тривалість: 01:42:29
Якість: 1080p 3D [Half OverUnder] [Ash61]
Відео:
кодек:
розмір кадру: 1920 х 1080
бітрейт: 7241 кб/с

Аудіо # 1:
мова: українська
переклад: професійний дубльований
кодек: 5.1
бітрейт: 448 кб/с

Аудіо # 2:
мова: англійська
переклад: оригінал
кодек: 5.1
бітрейт: 640 кб/с

Джерело озвучення:


Субтитри:
мова: українська
тип: програмні (м'які)
формат: *.srt

Субтитри: (Full, SDH, SDH-COLORED)
мова: англійська
тип: програмні (м'які)
формат: *.srt
Info
General
Unique ID : 191184831178019424851401577578152343395 (0x8FD4DBEFCD494A9CB2E19F1E2CF43763)
Complete name : D:\3D\Epic (2013) 1080p 3D halfOU (Ash61) Ukr Eng Sub Ukr Eng.
Format :
Format version : Version 4 / Version 2
File size : 6.08 GiB
Duration : 1h 42mn
Overall bit rate : 8 498 Kbps
Movie name : Эпик / Epic (3D) 2013
Encoded date : UTC 2016-02-05 15:01:52
Writing application : mkvmerge v8.8.0 ('Wind at my back') 64bit
Writing library : libebml v1.3.3 + libmatroska v1.4.4
DURATION : 01:33:01.540000000
NUMBER_OF_FRAMES : 1259
NUMBER_OF_BYTES : 36892
_STATISTICS_WRITING_APP : mkvmerge v8.8.0 ('Wind at my back') 64bit
_STATISTICS_WRITING_DATE_UTC : 2016-02-05 15:01:52
_STATISTICS_TAGS : BPS DURATION NUMBER_OF_FRAMES NUMBER_OF_BYTES

Video
ID : 1
Format : AVC
Format/Info : Advanced Video Codec
Format profile : High@L4.1
Format settings, CABAC : Yes
Format settings, ReFrames : 4 frames
Codec ID : V_MPEG4/ISO/AVC
Bit rate : 7 241 Kbps
Width : 1 920 pixels
Height : 1 080 pixels
Display aspect ratio : 16:9
Frame rate mode : Variable
Original frame rate : 23.976 fps
Color space : YUV
Chroma subsampling : 4:2:0
Bit depth : 8 bits
Scan type : Progressive
Title : by Ash61
Writing library : core 129 r2245 bc13772
Encoding settings : cabac=1 / ref=4 / deblock=1:-3:-3 / analyse=0x3:0x113 / me=umh / subme=9 / psy=1 / psy_rd=1.00:0.15 / mixed_ref=1 / me_range=32 / chroma_me=1 / trellis=2 / 8x8dct=1 / cqm=0 / deadzone=21,11 / fast_pskip=1 / chroma_qp_offset=-3 / threads=12 / lookahead_threads=2 / sliced_threads=0 / nr=0 / decimate=1 / interlaced=0 / bluray_compat=0 / constrained_intra=0 / bframes=8 / b_pyramid=2 / b_adapt=2 / b_bias=0 / direct=3 / weightb=1 / open_gop=0 / weightp=2 / keyint=250 / keyint_min=23 / scenecut=40 / intra_refresh=0 / rc_lookahead=60 / rc=crf / mbtree=1 / crf=17.5 / qcomp=0.70 / qpmin=0 / qpmax=69 / qpstep=4 / vbv_maxrate=40000 / vbv_bufsize=30000 / crf_max=0.0 / nal_hrd=none / frame-packing=4 / ip_ratio=1.40 / aq=1:0.70
Language : English
Default : Yes
Forced : No
DURATION : 01:42:29.143000000
NUMBER_OF_FRAMES : 147432
NUMBER_OF_BYTES : 5693442699
_STATISTICS_WRITING_APP : mkvmerge v8.8.0 ('Wind at my back') 64bit
_STATISTICS_WRITING_DATE_UTC : 2016-02-05 15:01:52
_STATISTICS_TAGS : BPS DURATION NUMBER_OF_FRAMES NUMBER_OF_BYTES

Audio #1
ID : 2
Format : AC-3
Format/Info : Audio Coding 3
Mode extension : CM (complete main)
Format settings, Endianness : Big
Codec ID : A_AC3
Duration : 1h 42mn
Bit rate mode : Constant
Bit rate : 448 Kbps
Channel count : 6 channels
Channel positions : Front: L C R, Side: L R, LFE
Sampling rate : 48.0 KHz
Bit depth : 16 bits
Compression mode : Lossy
Stream size : 328 MiB (5%)
Title : Дубляж - BD EUR
Language : Ukrainian
Default : Yes
Forced : Yes

Audio #2
ID : 3
Format : AC-3
Format/Info : Audio Coding 3
Mode extension : CM (complete main)
Format settings, Endianness : Big
Codec ID : A_AC3
Duration : 1h 42mn
Bit rate mode : Constant
Bit rate : 640 Kbps
Channel count : 6 channels
Channel positions : Front: L C R, Side: L R, LFE
Sampling rate : 48.0 KHz
Bit depth : 16 bits
Compression mode : Lossy
Stream size : 469 MiB (8%)
Title : Original
Language : English
Default : No
Forced : No

Text #1
ID : 4
Format : UTF-8
Codec ID : S_TEXT/UTF8
Codec ID/Info : UTF-8 Plain Text
Language : Ukrainian
Default : Yes
Forced : No

Text #2
ID : 5
Format : UTF-8
Codec ID : S_TEXT/UTF8
Codec ID/Info : UTF-8 Plain Text
Default : No
Forced : No

Text #3
ID : 6
Format : UTF-8
Codec ID : S_TEXT/UTF8
Codec ID/Info : UTF-8 Plain Text
Default : No
Forced : No

Text #4
ID : 7
Format : UTF-8
Codec ID : S_TEXT/UTF8
Codec ID/Info : UTF-8 Plain Text
Default : No
Forced : No

Menu
00:00:00.000 : :1
00:04:48.205 : :2
00:09:49.589 : :3
00:13:05.535 : :4
00:16:50.051 : :5
00:20:36.193 : :6
00:24:09.490 : :7
00:28:17.237 : :8
00:31:31.848 : :9
00:34:06.586 : :10
00:38:21.591 : :11
00:43:17.428 : :12
00:44:58.029 : :13
00:47:04.739 : :14
00:49:07.945 : :15
00:52:40.699 : :16
00:56:28.885 : :17
00:59:52.214 : :18
01:03:27.387 : :19
01:07:48.940 : :20
01:14:36.472 : :21
01:18:24.950 : :22
01:20:13.100 : :23
01:24:03.038 : :24
01:25:19.281 : :25
01:27:34.040 : :26
01:32:05.520 : :27
01:34:12.480 : :28
Скріншоти
Джерело: &
Особиста оцінка: 0 - не дивився

Відео для перегляду на 3D обладнанні!


 Трекер:    Зареєстрований   

Завантажити / скачати мультфільм українською



відео для новачків



 Зареєстрований:   2016-02-07 11:49
 Розмір:   6.08 GB 
 Оцінка мультфільму:   10/10 (Голосів: 4)
   
Інші релізи
   Епік / Epic (2013) Ukr/Eng НТН  4 / 0   2.18 GB   2013-09-08 20:08 
   Епік / Epic (2013) AVC patriot2305  6 / 0   1.86 GB   2013-09-05 19:19 
   Епік / Epic (2013) 1080p Ukr/Eng | Sub Ukr/Eng 11FrYkT  7 / 0   6.62 GB   2013-09-05 17:29 
   Епік / Epic (2013) 720p Ukr/Eng | Sub Ukr/Eng 11FrYkT  2 / 0   3.91 GB   2013-09-05 16:40 
   Епік / Epic (2013) Blu-Ray 1080p Multi | Sub Multi Drool  1 / 0   42.83 GB   2013-09-05 01:42 
   Епік / Epic (2013) Ukr/Eng | Sub Ukr/Eng AngryBirdsUA  5 / 2   1.73 GB   2013-08-11 15:48 
Ваш часовий пояс: GMT + 2 Години

Нова тема   Відповісти