Костянтин Кляшторний (Konstantin Klashtorni) | Дискографiя (21CD) (2004-2017) [FLAC] | Smooth Jazz / Chill Out

Нові коментарі

Нова тема   Відповісти
Автор Повідомлення
kolpavel 
VIP


З нами з: 04.05.14
Востаннє: 17.08.17
Повідомлень: 1156

2016-02-04 22:26  
Костянтин Кляшторний (Konstantin Klashtorni) | Дискографiя (21CD) (2004-2017)[FLAC] | Smooth Jazz / Chill Out

Костянтин Кляшторний (Konstantin Klashtorni) | Дискографiя (21CD) (2004-2017) [FLAC] | Smooth Jazz / Chill Out


Стиль: Smooth Jazz, Chill Out, Contemporary Instrumental
Країна, місто: Україна, Коростень
Сайти: Офіційний сайт
Видавець: Nightstage Records, Kvk Music
Виконавці:
Костянтин Кляшторний - саксофон

Альбоми:
Костянтин Кляшторний
2004 - Downtown - 48:34

Костянтин Кляшторний (Konstantin Klashtorni) | Дискографiя (21CD) (2004-2017) [FLAC] | Smooth Jazz / Chill Out

Треклист:
01. Downtown (3:56)
02. Waiting For You (5:25)
03. Easy Moving (3:27)
04. Lullaby (4:43)
05. Sunday (4:23)
06. Too Much To Be Truth (4:42)
07. Funky Story (4:39)
08. Morning Song (5:05)
09. Back To The Sunny Place (3:32)
10. Wild Fellow (4:46)
11. Octopus (3:52)

Видавець: Nightstage Records
Бітрейт: 896 кб/с
EAC
Exact Audio Copy V1.0 beta 3 from 29. August 2011

Отчёт EAC об извлечении, выполненном 6. декабря 2014, 12:03

Konstantin Klashtorni / Downtown

Дисковод: PLEXTOR DVDR PX-880SA Adapter: 1 ID: 0

Режим чтения : Достоверность
Использование точного потока : Да
Отключение кэша аудио : Да
Использование указателей C2 : Нет

Коррекция смещения при чтении : 6
Способность читать области Lead-in и Lead-out : Нет
Заполнение пропущенных сэмплов тишиной : Да
Удаление блоков с тишиной в начале и конце : Нет
При вычислениях CRC использовались нулевые сэмплы : Да
Интерфейс : Установленный внешний ASPI-интерфейс

Выходной формат : Пользовательский кодировщик
Выбранный битрейт : 1024 kBit/s
Качество : Высокий
Добавление ID3-тега : Нет
Утилита сжатия : C:\Program Files\Exact Audio Copy\FLAC\FLAC.EXE
Дополнительные параметры : -10 -V -T "ARTIST=%artist%" -T "ALBUM=%albumtitle%" -T "DATE=%year%" -T "GENRE=%genre%" -T "COMMENT=ripped by izia1956" %source%

TOC извлечённого CD

Трек | Старт | Длительность | Начальный сектор | Конечный сектор
---------------------------------------------------------------------
1 | 0:00.00 | 3:56.06 | 0 | 17705
2 | 3:56.06 | 5:25.12 | 17706 | 42092
3 | 9:21.18 | 3:27.17 | 42093 | 57634
4 | 12:48.35 | 4:43.69 | 57635 | 78928
5 | 17:32.29 | 4:23.17 | 78929 | 98670
6 | 21:55.46 | 4:42.66 | 98671 | 119886
7 | 26:38.37 | 4:39.29 | 119887 | 140840
8 | 31:17.66 | 5:05.31 | 140841 | 163746
9 | 36:23.22 | 3:32.27 | 163747 | 179673
10 | 39:55.49 | 4:46.00 | 179674 | 201123
11 | 44:41.49 | 3:52.57 | 201124 | 218580

Характеристики диапазона извлечения и сообщения об ошибках

Выбранный диапазон

Имя файла D:\BitComet\Konstantin Klashtorni (flac)\Konstantin Klashtorni\2004 - Downtown\Konstantin Klashtorni - Downtown.wav

Пиковый уровень 98.8 %
Скорость извлечения 8.9 X
Качество диапазона 100.0 %
CRC теста 1F45FD46
CRC копии 1F45FD46
Копирование... OK

Ошибок не произошло

AccurateRip: сводка

Трек 1 отсутствует в базе данных
Трек 2 отсутствует в базе данных
Трек 3 отсутствует в базе данных
Трек 4 отсутствует в базе данных
Трек 5 отсутствует в базе данных
Трек 6 отсутствует в базе данных
Трек 7 отсутствует в базе данных
Трек 8 отсутствует в базе данных
Трек 9 отсутствует в базе данных
Трек 10 отсутствует в базе данных
Трек 11 отсутствует в базе данных

Ни одного трека нет в базе AccurateRip

Конец отчёта

==== Контрольная сумма отчёта CDD3A45A563C74CFD1E83B1618362C4CE306F3ACE5CE4AF2A0D442B22A146255 ====
(.CUE)
REM GENRE "Smooth Jazz"
REM DATE 2004
REM DISCID 990B620B
REM COMMENT "ExactAudioCopy v1.0b3"
PERFORMER "Konstantin Klashtorni"
TITLE "Downtown"
FILE "Konstantin Klashtorni - Downtown.flac" WAVE
TRACK 01 AUDIO
TITLE "Downtown"
PERFORMER "Konstantin Klashtorni"
FLAGS DCP
INDEX 01 00:00:00
TRACK 02 AUDIO
TITLE "Waiting For You"
PERFORMER "Konstantin Klashtorni"
FLAGS DCP
INDEX 01 03:56:06
TRACK 03 AUDIO
TITLE "Easy Moving"
PERFORMER "Konstantin Klashtorni"
FLAGS DCP
INDEX 01 09:21:18
TRACK 04 AUDIO
TITLE "Lullaby"
PERFORMER "Konstantin Klashtorni"
FLAGS DCP
INDEX 01 12:48:35
TRACK 05 AUDIO
TITLE "Sunday"
PERFORMER "Konstantin Klashtorni"
FLAGS DCP
INDEX 01 17:32:29
TRACK 06 AUDIO
TITLE "Too Much To Be Truth"
PERFORMER "Konstantin Klashtorni"
FLAGS DCP
INDEX 01 21:55:46
TRACK 07 AUDIO
TITLE "Funky Story"
PERFORMER "Konstantin Klashtorni"
FLAGS DCP
INDEX 01 26:38:37
TRACK 08 AUDIO
TITLE "Morning Song"
PERFORMER "Konstantin Klashtorni"
FLAGS DCP
INDEX 01 31:17:66
TRACK 09 AUDIO
TITLE "Back To The Sunny Place"
PERFORMER "Konstantin Klashtorni"
FLAGS DCP
INDEX 01 36:23:22
TRACK 10 AUDIO
TITLE "Wild Fellow"
PERFORMER "Konstantin Klashtorni"
FLAGS DCP
INDEX 01 39:55:49
TRACK 11 AUDIO
TITLE "Octopus"
PERFORMER "Konstantin Klashtorni"
FLAGS DCP
INDEX 01 44:41:49
2006 - Led By You - 43:07

Костянтин Кляшторний (Konstantin Klashtorni) | Дискографiя (21CD) (2004-2017) [FLAC] | Smooth Jazz / Chill Out

Треклист:
01. Back It Up (4:18)
02. So Lovely (4:08)
03. It Dews (4:59)
04. Haven't Got the Heart (4:09)
05. Led By You (4:08)
06. Close (3:43)
07. On the Way (4:02)
08. Ocean of Joy (4:33)
09. Look Around (4:53)
10. Stay Romantic (4:12)

Бітрейт: 1000 кб/с
EAC
Exact Audio Copy V1.0 beta 3 from 29. August 2011

Отчёт EAC об извлечении, выполненном 6. декабря 2014, 11:36

Konstantin Klashtorni / Led By You

Дисковод: PLEXTOR DVDR PX-880SA Adapter: 1 ID: 0

Режим чтения : Достоверность
Использование точного потока : Да
Отключение кэша аудио : Да
Использование указателей C2 : Нет

Коррекция смещения при чтении : 6
Способность читать области Lead-in и Lead-out : Нет
Заполнение пропущенных сэмплов тишиной : Да
Удаление блоков с тишиной в начале и конце : Нет
При вычислениях CRC использовались нулевые сэмплы : Да
Интерфейс : Установленный внешний ASPI-интерфейс

Выходной формат : Пользовательский кодировщик
Выбранный битрейт : 1024 kBit/s
Качество : Высокий
Добавление ID3-тега : Нет
Утилита сжатия : C:\Program Files\Exact Audio Copy\FLAC\FLAC.EXE
Дополнительные параметры : -10 -V -T "ARTIST=%artist%" -T "ALBUM=%albumtitle%" -T "DATE=%year%" -T "GENRE=%genre%" -T "COMMENT=ripped by izia1956" %source%

TOC извлечённого CD

Трек | Старт | Длительность | Начальный сектор | Конечный сектор
---------------------------------------------------------------------
1 | 0:00.00 | 4:18.00 | 0 | 19349
2 | 4:18.00 | 4:08.01 | 19350 | 37950
3 | 8:26.01 | 4:59.00 | 37951 | 60375
4 | 13:25.01 | 4:09.00 | 60376 | 79050
5 | 17:34.01 | 4:08.00 | 79051 | 97650
6 | 21:42.01 | 3:43.00 | 97651 | 114375
7 | 25:25.01 | 4:02.72 | 114376 | 132597
8 | 29:27.73 | 4:33.66 | 132598 | 153138
9 | 34:01.64 | 4:53.71 | 153139 | 175184
10 | 38:55.60 | 4:12.12 | 175185 | 194096

Характеристики диапазона извлечения и сообщения об ошибках

Выбранный диапазон

Имя файла D:\BitComet\Konstantin Klashtorni (flac)\Konstantin Klashtorni\2006 - Led By You\Konstantin Klashtorni - Led By You.wav

Пиковый уровень 100.0 %
Скорость извлечения 4.0 X
Качество диапазона 99.9 %
CRC теста A6326A72
CRC копии A6326A72
Копирование... OK

Ошибок не произошло

AccurateRip: сводка

Трек 1 : извлечено точно (доверие 1) [7B8FE24B] (AR v1)
Трек 2 : извлечено точно (доверие 1) [11E4BCB2] (AR v1)
Трек 3 : извлечено точно (доверие 1) [1F2AA1DF] (AR v1)
Трек 4 : извлечено точно (доверие 1) [E03CE6C7] (AR v1)
Трек 5 : извлечено точно (доверие 1) [372E971F] (AR v1)
Трек 6 : извлечено точно (доверие 1) [E220DE79] (AR v1)
Трек 7 : извлечено точно (доверие 1) [DA47BD57] (AR v1)
Трек 8 : извлечено точно (доверие 1) [AF0F155B] (AR v1)
Трек 9 : извлечено точно (доверие 1) [334CDA26] (AR v1)
Трек 10 : извлечено точно (доверие 1) [2D4E4E06] (AR v1)

Все треки извлечены точно

Конец отчёта

==== Контрольная сумма отчёта CC4E645889F68930750236A55A547FE4731E43450E5C309457F2A205CEBE3EE4 ====
(.CUE)
REM GENRE "Smooth Jazz"
REM DATE 2006
REM DISCID 780A1B0A
REM COMMENT "ExactAudioCopy v1.0b3"
PERFORMER "Konstantin Klashtorni"
TITLE "Led By You"
FILE "Konstantin Klashtorni - Led By You.flac" WAVE
TRACK 01 AUDIO
TITLE "Back It Up"
PERFORMER "Konstantin Klashtorni"
FLAGS PRE
INDEX 01 00:00:00
TRACK 02 AUDIO
TITLE "So Lovely"
PERFORMER "Konstantin Klashtorni"
FLAGS PRE
INDEX 01 04:18:00
TRACK 03 AUDIO
TITLE "It Dews"
PERFORMER "Konstantin Klashtorni"
FLAGS PRE
INDEX 01 08:26:01
TRACK 04 AUDIO
TITLE "Haven't Got The Heart"
PERFORMER "Konstantin Klashtorni"
FLAGS PRE
INDEX 01 13:25:01
TRACK 05 AUDIO
TITLE "Led By You"
PERFORMER "Konstantin Klashtorni"
FLAGS PRE
INDEX 01 17:34:01
TRACK 06 AUDIO
TITLE "Close"
PERFORMER "Konstantin Klashtorni"
FLAGS PRE
INDEX 01 21:42:01
TRACK 07 AUDIO
TITLE "On The Way"
PERFORMER "Konstantin Klashtorni"
FLAGS PRE
INDEX 01 25:25:01
TRACK 08 AUDIO
TITLE "Ocean Of Joy"
PERFORMER "Konstantin Klashtorni"
FLAGS PRE
INDEX 01 29:27:73
TRACK 09 AUDIO
TITLE "Look Around"
PERFORMER "Konstantin Klashtorni"
FLAGS PRE
INDEX 01 34:01:64
TRACK 10 AUDIO
TITLE "Stay Romantic"
PERFORMER "Konstantin Klashtorni"
FLAGS PRE
INDEX 01 38:55:60
2007 - Saxing Up - Bee Gees - Love Songs - 40:49

Костянтин Кляшторний (Konstantin Klashtorni) | Дискографiя (21CD) (2004-2017) [FLAC] | Smooth Jazz / Chill Out

Треклист:
01. How Deep Is Your Love (4:01)
02. To Love Somebody (3:48)
03. You Win Again (4:07)
04. I Could Not Love You More (4:04)
05. Too Much Heaven (4:56)
06. More Than a Woman (3:50)
07. Emotion (4:36)
08. Run to Me (3:49)
09. Love So Right (4:20)
10. Words (3:18)

Бітрейт: 974 кб/с
EAC
Exact Audio Copy V1.0 beta 3 from 29. August 2011

Отчёт EAC об извлечении, выполненном 3. ноября 2014, 19:49

Saxing Up / Bee Gees - Love Songs

Дисковод: PLEXTOR DVDR PX-880SA Adapter: 1 ID: 0

Режим чтения : Достоверность
Использование точного потока : Да
Отключение кэша аудио : Да
Использование указателей C2 : Нет

Коррекция смещения при чтении : 6
Способность читать области Lead-in и Lead-out : Нет
Заполнение пропущенных сэмплов тишиной : Да
Удаление блоков с тишиной в начале и конце : Нет
При вычислениях CRC использовались нулевые сэмплы : Да
Интерфейс : Установленный внешний ASPI-интерфейс

Выходной формат : Пользовательский кодировщик
Выбранный битрейт : 1024 kBit/s
Качество : Высокий
Добавление ID3-тега : Нет
Утилита сжатия : C:\Program Files\Exact Audio Copy\FLAC\FLAC.EXE
Дополнительные параметры : -10 -V -T "ARTIST=%artist%" -T "ALBUM=%albumtitle%" -T "DATE=%year%" -T "GENRE=%genre%" -T "COMMENT=ripped by izia1956" %source%

TOC извлечённого CD

Трек | Старт | Длительность | Начальный сектор | Конечный сектор
---------------------------------------------------------------------
1 | 0:00.00 | 4:01.00 | 0 | 18074
2 | 4:01.00 | 3:48.00 | 18075 | 35174
3 | 7:49.00 | 4:07.00 | 35175 | 53699
4 | 11:56.00 | 4:04.00 | 53700 | 71999
5 | 16:00.00 | 4:56.00 | 72000 | 94199
6 | 20:56.00 | 3:50.00 | 94200 | 111449
7 | 24:46.00 | 4:36.00 | 111450 | 132149
8 | 29:22.00 | 3:49.00 | 132150 | 149324
9 | 33:11.00 | 4:20.00 | 149325 | 168824
10 | 37:31.00 | 3:18.00 | 168825 | 183674

Характеристики диапазона извлечения и сообщения об ошибках

Выбранный диапазон

Имя файла D:\BitComet\Konstantin Klashtorni (flac)\Saxing Up - Bee Gees - Love Songs (2007)\Saxing Up - Bee Gees - Love Songs.wav

Пиковый уровень 100.0 %
Скорость извлечения 8.5 X
Качество диапазона 100.0 %
CRC теста E221781F
CRC копии E221781F
Копирование... OK

Ошибок не произошло

AccurateRip: сводка

Трек 1 отсутствует в базе данных
Трек 2 отсутствует в базе данных
Трек 3 отсутствует в базе данных
Трек 4 отсутствует в базе данных
Трек 5 отсутствует в базе данных
Трек 6 отсутствует в базе данных
Трек 7 отсутствует в базе данных
Трек 8 отсутствует в базе данных
Трек 9 отсутствует в базе данных
Трек 10 отсутствует в базе данных

Ни одного трека нет в базе AccurateRip

Конец отчёта

==== Контрольная сумма отчёта E2F23EB673DDB4A181E5EC73EC62591E54B31659EB1D7E619A01A4AD9D67B6AC ====
(.CUE)
REM GENRE "Smmoth Jazz"
REM DATE 2007
REM DISCID 9109910A
REM COMMENT "ExactAudioCopy v1.0b3"
PERFORMER "Saxing Up"
TITLE "Bee Gees - Love Songs"
FILE "Saxing Up - Bee Gees - Love Songs.flac" WAVE
TRACK 01 AUDIO
TITLE "How Deep Is Your Love"
PERFORMER "Saxing Up"
INDEX 01 00:00:00
TRACK 02 AUDIO
TITLE "To Love Somebody"
PERFORMER "Saxing Up"
INDEX 01 04:01:00
TRACK 03 AUDIO
TITLE "You Win Again"
PERFORMER "Saxing Up"
INDEX 01 07:49:00
TRACK 04 AUDIO
TITLE "I Could Not Love You More"
PERFORMER "Saxing Up"
INDEX 01 11:56:00
TRACK 05 AUDIO
TITLE "Too Much Heaven"
PERFORMER "Saxing Up"
INDEX 01 16:00:00
TRACK 06 AUDIO
TITLE "More Than A Woman"
PERFORMER "Saxing Up"
INDEX 01 20:56:00
TRACK 07 AUDIO
TITLE "Emotion"
PERFORMER "Saxing Up"
INDEX 01 24:46:00
TRACK 08 AUDIO
TITLE "Run To Me"
PERFORMER "Saxing Up"
INDEX 01 29:22:00
TRACK 09 AUDIO
TITLE "Love So Right"
PERFORMER "Saxing Up"
INDEX 01 33:11:00
TRACK 10 AUDIO
TITLE "Words"
PERFORMER "Saxing Up"
INDEX 01 37:31:00
2008 - Konstantin - Smoothing - 52:35

Костянтин Кляшторний (Konstantin Klashtorni) | Дискографiя (21CD) (2004-2017) [FLAC] | Smooth Jazz / Chill Out

Треклист:
01. Stylish Walk (4:43)
02. Smoothing (5:11)
03. Autumn's Edge (4:34)
04. Walking Away (4:20)
05. Chica Timida (4:36)
06. Spinning Along (5:05)
07. Silky Way (4:58)
08. Words of Love (4:57)
09. Fresh Feeling (3:47)
10. Drive Me Home (4:49)
11. Let's Chill (5:29)

Бітрейт: 972 кб/с
EAC
Exact Audio Copy V1.0 beta 3 from 29. August 2011

Отчёт EAC об извлечении, выполненном 6. декабря 2014, 11:00

Konstantin / Smoothing

Дисковод: PLEXTOR DVDR PX-880SA Adapter: 1 ID: 0

Режим чтения : Достоверность
Использование точного потока : Да
Отключение кэша аудио : Да
Использование указателей C2 : Нет

Коррекция смещения при чтении : 6
Способность читать области Lead-in и Lead-out : Нет
Заполнение пропущенных сэмплов тишиной : Да
Удаление блоков с тишиной в начале и конце : Нет
При вычислениях CRC использовались нулевые сэмплы : Да
Интерфейс : Установленный внешний ASPI-интерфейс

Выходной формат : Пользовательский кодировщик
Выбранный битрейт : 1024 kBit/s
Качество : Высокий
Добавление ID3-тега : Нет
Утилита сжатия : C:\Program Files\Exact Audio Copy\FLAC\FLAC.EXE
Дополнительные параметры : -10 -V -T "ARTIST=%artist%" -T "ALBUM=%albumtitle%" -T "DATE=%year%" -T "GENRE=%genre%" -T "COMMENT=ripped by izia1956" %source%

TOC извлечённого CD

Трек | Старт | Длительность | Начальный сектор | Конечный сектор
---------------------------------------------------------------------
1 | 0:00.00 | 4:43.70 | 0 | 21294
2 | 4:43.70 | 5:11.74 | 21295 | 44693
3 | 9:55.69 | 4:34.34 | 44694 | 65277
4 | 14:30.28 | 4:20.32 | 65278 | 84809
5 | 18:50.60 | 4:36.72 | 84810 | 105581
6 | 23:27.57 | 5:05.29 | 105582 | 128485
7 | 28:33.11 | 4:58.40 | 128486 | 150875
8 | 33:31.51 | 4:57.44 | 150876 | 173194
9 | 38:29.20 | 3:47.74 | 173195 | 190293
10 | 42:17.19 | 4:49.03 | 190294 | 211971
11 | 47:06.22 | 5:29.26 | 211972 | 236672

Характеристики диапазона извлечения и сообщения об ошибках

Выбранный диапазон

Имя файла D:\BitComet\Konstantin Klashtorni (flac)\Konstantin Klashtorni\2008 - Konstantin - Smoothing\Konstantin - Smoothing.wav

Пиковый уровень 100.0 %
Скорость извлечения 9.0 X
Качество диапазона 99.9 %
CRC теста A2163C13
CRC копии A2163C13
Копирование... OK

Ошибок не произошло

AccurateRip: сводка

Трек 1 точность не определена (достоверность 1) [80F5DDB0], AccurateRip вернул [85678D51] (AR v2)
Трек 2 точность не определена (достоверность 1) [068E89FB], AccurateRip вернул [66DAE0FF] (AR v2)
Трек 3 точность не определена (достоверность 1) [478237FF], AccurateRip вернул [1E3B1E0A] (AR v2)
Трек 4 точность не определена (достоверность 1) [52A38F9B], AccurateRip вернул [9DCF3590] (AR v2)
Трек 5 точность не определена (достоверность 1) [2E457C98], AccurateRip вернул [01D4FF77] (AR v2)
Трек 6 точность не определена (достоверность 1) [61910034], AccurateRip вернул [A843C591] (AR v2)
Трек 7 точность не определена (достоверность 1) [FB6142FE], AccurateRip вернул [9FDD88E7] (AR v2)
Трек 8 точность не определена (достоверность 1) [38C411DA], AccurateRip вернул [D0C06C00] (AR v2)
Трек 9 точность не определена (достоверность 1) [B540A4E6], AccurateRip вернул [15E230FC] (AR v2)
Трек 10 точность не определена (достоверность 1) [D4A34868], AccurateRip вернул [A4D2E0DC] (AR v2)
Трек 11 точность не определена (достоверность 1) [21F67F2A], AccurateRip вернул [F96C8F84] (AR v2)

Ни один трек не прошёл проверки на точность
В вашей базе может быть иной вариант штамповки диска

Конец отчёта

==== Контрольная сумма отчёта FDC8190A665FCD3066D1B44ABAB273008F45F8A09294637B6A7CA73ED96F8EC7 ====
(.CUE)
REM GENRE "Smooth Jazz"
REM DATE 2008
REM DISCID 8E0C530B
REM COMMENT "ExactAudioCopy v1.0b3"
PERFORMER "Konstantin"
TITLE "Smoothing"
FILE "Konstantin - Smoothing.flac" WAVE
TRACK 01 AUDIO
TITLE "Stylish Walk"
PERFORMER "Konstantin"
FLAGS DCP
INDEX 01 00:00:00
TRACK 02 AUDIO
TITLE "Smoothing"
PERFORMER "Konstantin"
FLAGS DCP
INDEX 01 04:43:70
TRACK 03 AUDIO
TITLE "Autumn's Edge"
PERFORMER "Konstantin"
FLAGS DCP
INDEX 01 09:55:69
TRACK 04 AUDIO
TITLE "Walking Away"
PERFORMER "Konstantin"
FLAGS DCP
INDEX 01 14:30:28
TRACK 05 AUDIO
TITLE "Chica Timida"
PERFORMER "Konstantin"
FLAGS DCP
INDEX 01 18:50:60
TRACK 06 AUDIO
TITLE "Spinning Along"
PERFORMER "Konstantin"
FLAGS DCP
INDEX 01 23:27:57
TRACK 07 AUDIO
TITLE "Silky Way"
PERFORMER "Konstantin"
FLAGS DCP
INDEX 01 28:33:11
TRACK 08 AUDIO
TITLE "Words Of Love"
PERFORMER "Konstantin"
FLAGS DCP
INDEX 01 33:31:51
TRACK 09 AUDIO
TITLE "Fresh Feeling"
PERFORMER "Konstantin"
FLAGS DCP
INDEX 01 38:29:20
TRACK 10 AUDIO
TITLE "Drive Me Home"
PERFORMER "Konstantin"
FLAGS DCP
INDEX 01 42:17:19
TRACK 11 AUDIO
TITLE "Let's Chill"
PERFORMER "Konstantin"
FLAGS DCP
INDEX 01 47:06:22
2011 - Smooth Jazz I - 47:04

Костянтин Кляшторний (Konstantin Klashtorni) | Дискографiя (21CD) (2004-2017) [FLAC] | Smooth Jazz / Chill Out

Треклист:
01. Let's Get It On (4:25)
02. All Over Me (4:24)
03. Day In Day Out (4:37)
04. You Go To My Head (4:11)
05. I'll Be There (3:58)
06. Here We Go (4:35)
07. Forward (4:17)
08. Gonna Be All Right (4:21)
09. At Last (4:13)
10. The Moment (3:59)
11. Just Feels Right (4:04)

Бітрейт: 972 кб/с
EAC
Exact Audio Copy V1.0 beta 3 from 29. August 2011

Отчёт EAC об извлечении, выполненном 5. декабря 2014, 20:17

Konstantin Klashtorni / Smooth Jazz I

Дисковод: PLEXTOR DVDR PX-880SA Adapter: 1 ID: 0

Режим чтения : Достоверность
Использование точного потока : Да
Отключение кэша аудио : Да
Использование указателей C2 : Нет

Коррекция смещения при чтении : 6
Способность читать области Lead-in и Lead-out : Нет
Заполнение пропущенных сэмплов тишиной : Да
Удаление блоков с тишиной в начале и конце : Нет
При вычислениях CRC использовались нулевые сэмплы : Да
Интерфейс : Установленный внешний ASPI-интерфейс

Выходной формат : Пользовательский кодировщик
Выбранный битрейт : 1024 kBit/s
Качество : Высокий
Добавление ID3-тега : Нет
Утилита сжатия : C:\Program Files\Exact Audio Copy\FLAC\FLAC.EXE
Дополнительные параметры : -10 -V -T "ARTIST=%artist%" -T "ALBUM=%albumtitle%" -T "DATE=%year%" -T "GENRE=%genre%" -T "COMMENT=ripped by izia1956" %source%

TOC извлечённого CD

Трек | Старт | Длительность | Начальный сектор | Конечный сектор
---------------------------------------------------------------------
1 | 0:00.00 | 4:25.25 | 0 | 19899
2 | 4:25.25 | 3:58.19 | 19900 | 37768
3 | 8:23.44 | 4:24.23 | 37769 | 57591
4 | 12:47.67 | 4:36.74 | 57592 | 78365
5 | 17:24.66 | 4:11.13 | 78366 | 97203
6 | 21:36.04 | 4:16.43 | 97204 | 116446
7 | 25:52.47 | 4:03.62 | 116447 | 134733
8 | 29:56.34 | 4:12.42 | 134734 | 153675
9 | 34:09.01 | 3:59.02 | 153676 | 171602
10 | 38:08.03 | 4:21.14 | 171603 | 191191
11 | 42:29.17 | 4:34.62 | 191192 | 211803

Характеристики диапазона извлечения и сообщения об ошибках

Выбранный диапазон

Имя файла D:\BitComet\Konstantin Klashtorni (flac)\Smooth Jazz I\Konstantin Klashtorni - Smooth Jazz I.wav

Пиковый уровень 100.0 %
Скорость извлечения 8.4 X
Качество диапазона 100.0 %
CRC теста 9DD27216
CRC копии 9DD27216
Копирование... OK

Ошибок не произошло

AccurateRip: сводка

Трек 1 отсутствует в базе данных
Трек 2 отсутствует в базе данных
Трек 3 отсутствует в базе данных
Трек 4 отсутствует в базе данных
Трек 5 отсутствует в базе данных
Трек 6 отсутствует в базе данных
Трек 7 отсутствует в базе данных
Трек 8 отсутствует в базе данных
Трек 9 отсутствует в базе данных
Трек 10 отсутствует в базе данных
Трек 11 отсутствует в базе данных

Ни одного трека нет в базе AccurateRip

Конец отчёта

==== Контрольная сумма отчёта 3F52FA3C54DCF338B7E9D9D038CE7BF87A476A6EB2ED431E1A814D889FBE6DDF ====
(.CUE)
REM GENRE "Smooth Jazz"
REM DATE 2011
REM DISCID 9A0B080B
REM COMMENT "ExactAudioCopy v1.0b3"
PERFORMER "Konstantin Klashtorni"
TITLE "Smooth Jazz I"
FILE "Konstantin Klashtorni - Smooth Jazz I.flac" WAVE
TRACK 01 AUDIO
TITLE "Let's get it on "
PERFORMER "Konstantin Klashtorni"
FLAGS DCP
INDEX 01 00:00:00
TRACK 02 AUDIO
TITLE "I'll be there"
PERFORMER "Konstantin Klashtorni"
FLAGS DCP
INDEX 01 04:25:25
TRACK 03 AUDIO
TITLE "All over me"
PERFORMER "Konstantin Klashtorni"
FLAGS DCP
INDEX 01 08:23:44
TRACK 04 AUDIO
TITLE "Day in day out"
PERFORMER "Konstantin Klashtorni"
FLAGS DCP
INDEX 01 12:47:67
TRACK 05 AUDIO
TITLE "You go to my head"
PERFORMER "Konstantin Klashtorni"
FLAGS DCP
INDEX 01 17:24:66
TRACK 06 AUDIO
TITLE "Forward"
PERFORMER "Konstantin Klashtorni"
FLAGS DCP
INDEX 01 21:36:04
TRACK 07 AUDIO
TITLE "Just feels right"
PERFORMER "Konstantin Klashtorni"
FLAGS DCP
INDEX 01 25:52:47
TRACK 08 AUDIO
TITLE "At last"
PERFORMER "Konstantin Klashtorni"
FLAGS DCP
INDEX 01 29:56:34
TRACK 09 AUDIO
TITLE "The moment"
PERFORMER "Konstantin Klashtorni"
FLAGS DCP
INDEX 01 34:09:01
TRACK 10 AUDIO
TITLE "Gonna be all right"
PERFORMER "Konstantin Klashtorni"
FLAGS DCP
INDEX 01 38:08:03
TRACK 11 AUDIO
TITLE "Here we go"
PERFORMER "Konstantin Klashtorni"
FLAGS DCP
INDEX 01 42:29:17
2011 - Smooth Jazz II - 50:43

Костянтин Кляшторний (Konstantin Klashtorni) | Дискографiя (21CD) (2004-2017) [FLAC] | Smooth Jazz / Chill Out

Треклист:
01. Together Again (4:06)
02. You Make Me Smile (4:24)
03. Forever In Love (4:52)
04. Nice and Easy (5:11)
05. Pure (4:09)
06. Lay It Down (2:49)
07. Lets Fall In Love (3:56)
08. Hookin Up (3:09)
09. Lovely Day (4:17)
10. Make Room For Me (4:02)
11. Love Never Gets Old (4:30)
12. Ready For Love (5:12)

Бітрейт: 919 кб/с
EAC
Exact Audio Copy V1.0 beta 3 from 29. August 2011

Отчёт EAC об извлечении, выполненном 28. мая 2016, 15:18

Konstantin Klashtorni / Smooth Jazz II

Дисковод: ATAPI iHAS424 A Adapter: 0 ID: 0

Режим чтения : Достоверность
Использование точного потока : Да
Отключение кэша аудио : Да
Использование указателей C2 : Нет

Коррекция смещения при чтении : 6
Способность читать области Lead-in и Lead-out : Нет
Заполнение пропущенных сэмплов тишиной : Да
Удаление блоков с тишиной в начале и конце : Нет
При вычислениях CRC использовались нулевые сэмплы : Да
Интерфейс : Установленный внешний ASPI-интерфейс

Выходной формат : Пользовательский кодировщик
Выбранный битрейт : 1024 kBit/s
Качество : Высокий
Добавление ID3-тега : Нет
Утилита сжатия : C:\Program Files\Exact Audio Copy\FLAC\FLAC.EXE
Дополнительные параметры : -8 -V -T "ARTIST=%artist%" -T "ALBUM=%albumtitle%" -T "DATE=%year%" -T "GENRE=%genre%" -T "COMMENT=ripped by izia1956" %source%

TOC извлечённого CD

Трек | Старт | Длительность | Начальный сектор | Конечный сектор
---------------------------------------------------------------------
1 | 0:00.00 | 4:06.63 | 0 | 18512
2 | 4:06.63 | 4:24.35 | 18513 | 38347
3 | 8:31.23 | 4:52.22 | 38348 | 60269
4 | 13:23.45 | 5:11.72 | 60270 | 83666
5 | 18:35.42 | 4:09.74 | 83667 | 102415
6 | 22:45.41 | 2:49.43 | 102416 | 115133
7 | 25:35.09 | 3:56.45 | 115134 | 132878
8 | 29:31.54 | 3:09.06 | 132879 | 147059
9 | 32:40.60 | 4:17.49 | 147060 | 166383
10 | 36:58.34 | 4:02.11 | 166384 | 184544
11 | 41:00.45 | 4:30.03 | 184545 | 204797
12 | 45:30.48 | 5:12.18 | 204798 | 228215

Характеристики диапазона извлечения и сообщения об ошибках

Выбранный диапазон

Имя файла D:\BitComet\Konstantin Klashtorni (flac)\Konstantin Klashtorni\2011 - Smooth Jazz II\Konstantin Klashtorni - Smooth Jazz II.wav

Пиковый уровень 100.0 %
Скорость извлечения 6.1 X
Качество диапазона 100.0 %
CRC теста 4E504852
CRC копии 4E504852
Копирование... OK

Ошибок не произошло

AccurateRip: сводка

Трек 1 отсутствует в базе данных
Трек 2 отсутствует в базе данных
Трек 3 отсутствует в базе данных
Трек 4 отсутствует в базе данных
Трек 5 отсутствует в базе данных
Трек 6 отсутствует в базе данных
Трек 7 отсутствует в базе данных
Трек 8 отсутствует в базе данных
Трек 9 отсутствует в базе данных
Трек 10 отсутствует в базе данных
Трек 11 отсутствует в базе данных
Трек 12 отсутствует в базе данных

Ни одного трека нет в базе AccurateRip

Конец отчёта

==== Контрольная сумма отчёта EB6E042BD52B62EB28184E1985D3BB41BE4286FAC423E50B473D91838F9B737E ====
(.CUE)
REM GENRE "Smooth Jazz"
REM DATE 2011
REM DISCID 970BE20C
REM COMMENT "ExactAudioCopy v1.0b3"
PERFORMER "Konstantin Klashtorni"
TITLE "Smooth Jazz II"
FILE "Konstantin Klashtorni - Smooth Jazz II.flac" WAVE
TRACK 01 AUDIO
TITLE "Together Again"
PERFORMER "Konstantin Klashtorni"
FLAGS DCP
INDEX 01 00:00:00
TRACK 02 AUDIO
TITLE "You Make Me Smile"
PERFORMER "Konstantin Klashtorni"
FLAGS DCP
INDEX 01 04:06:63
TRACK 03 AUDIO
TITLE "Forever In Love"
PERFORMER "Konstantin Klashtorni"
FLAGS DCP
INDEX 01 08:31:23
TRACK 04 AUDIO
TITLE "Nice and Easy"
PERFORMER "Konstantin Klashtorni"
FLAGS DCP
INDEX 01 13:23:45
TRACK 05 AUDIO
TITLE "Pure"
PERFORMER "Konstantin Klashtorni"
FLAGS DCP
INDEX 01 18:35:42
TRACK 06 AUDIO
TITLE "Lay It Down"
PERFORMER "Konstantin Klashtorni"
FLAGS DCP
INDEX 01 22:45:41
TRACK 07 AUDIO
TITLE "Let's Fall In Love"
PERFORMER "Konstantin Klashtorni"
FLAGS DCP
INDEX 01 25:35:09
TRACK 08 AUDIO
TITLE "Hookin' Up"
PERFORMER "Konstantin Klashtorni"
FLAGS DCP
INDEX 01 29:31:54
TRACK 09 AUDIO
TITLE "Lovely Day"
PERFORMER "Konstantin Klashtorni"
FLAGS DCP
INDEX 01 32:40:60
TRACK 10 AUDIO
TITLE "Make Room For Me"
PERFORMER "Konstantin Klashtorni"
FLAGS DCP
INDEX 01 36:58:34
TRACK 11 AUDIO
TITLE "Love Never Get's Old"
PERFORMER "Konstantin Klashtorni"
FLAGS DCP
INDEX 01 41:00:45
TRACK 12 AUDIO
TITLE "Ready For Love"
PERFORMER "Konstantin Klashtorni"
FLAGS DCP
INDEX 01 45:30:48
2016 - Smooth Jazz III - 41:47

Костянтин Кляшторний (Konstantin Klashtorni) | Дискографiя (21CD) (2004-2017) [FLAC] | Smooth Jazz / Chill Out


Треклист:
01. Irresistible (04:13)
02. Walking on Dream (03:54)
03. Humble and Kind (04:07)
04. Good to Be Alive (04:12)
05. In the Night (04:07)
06. Used to Love You (04:08)
07. One Call Away (04:36)
08. You Should Be Here (04:03)
09. Stand by You (04:14)
10. On My Mind (04:16)

Бітрейт: 822 кб/с
EAC

Код:

Exact Audio Copy V1.0 beta 3 from 29. August 2011

Отчёт EAC об извлечении, выполненном 22. мая 2016, 12:20

Konstantin Klashtorni / Smooth Jazz III

Дисковод: ATAPI iHAS424 A Adapter: 0 ID: 0

Режим чтения : Достоверность
Использование точного потока : Да
Отключение кэша аудио : Да
Использование указателей C2 : Нет

Коррекция смещения при чтении : 6
Способность читать области Lead-in и Lead-out : Нет
Заполнение пропущенных сэмплов тишиной : Да
Удаление блоков с тишиной в начале и конце : Нет
При вычислениях CRC использовались нулевые сэмплы : Да
Интерфейс : Установленный внешний ASPI-интерфейс

Выходной формат : Пользовательский кодировщик
Выбранный битрейт : 1024 kBit/s
Качество : Высокий
Добавление ID3-тега : Нет
Утилита сжатия : C:\Program Files\Exact Audio Copy\FLAC\FLAC.EXE
Дополнительные параметры : -8 -V -T "ARTIST=%artist%" -T "ALBUM=%albumtitle%" -T "DATE=%year%" -T "GENRE=%genre%" -T "COMMENT=ripped by izia1956" %source%

TOC извлечённого CD

Трек | Старт | Длительность | Начальный сектор | Конечный сектор
---------------------------------------------------------------------
1 | 0:00.00 | 4:12.48 | 0 | 18947
2 | 4:12.48 | 3:53.60 | 18948 | 36482
3 | 8:06.33 | 4:06.55 | 36483 | 54987
4 | 12:13.13 | 4:11.45 | 54988 | 73857
5 | 16:24.58 | 4:06.49 | 73858 | 92356
6 | 20:31.32 | 4:07.59 | 92357 | 110940
7 | 24:39.16 | 4:35.08 | 110941 | 131573
8 | 29:14.24 | 4:02.15 | 131574 | 149738
9 | 33:16.39 | 4:13.45 | 149739 | 168758
10 | 37:30.09 | 4:15.07 | 168759 | 187890

Характеристики диапазона извлечения и сообщения об ошибках

Выбранный диапазон

Имя файла D:\BitComet\Konstantin Klashtorni (flac)\Konstantin Klashtorni\2016 - Smooth Jazz III\Konstantin Klashtorni - Smooth Jazz III.wav

Пиковый уровень 100.0 %
Скорость извлечения 5.8 X
Качество диапазона 100.0 %
CRC теста 61D94E79
CRC копии 61D94E79
Копирование... OK

Ошибок не произошло

AccurateRip: сводка

Трек 1 отсутствует в базе данных
Трек 2 отсутствует в базе данных
Трек 3 отсутствует в базе данных
Трек 4 отсутствует в базе данных
Трек 5 отсутствует в базе данных
Трек 6 отсутствует в базе данных
Трек 7 отсутствует в базе данных
Трек 8 отсутствует в базе данных
Трек 9 отсутствует в базе данных
Трек 10 отсутствует в базе данных

Ни одного трека нет в базе AccurateRip

Конец отчёта

==== Контрольная сумма отчёта A957823958ED6B08101EEC65AFA279D221E2BAA9D2BDAF210323A39AFCF24212 ====
(.CUE)
Код:

REM GENRE "Smooth Jazz "
REM DATE 2016
REM DISCID 9709C90A
REM COMMENT "ExactAudioCopy v1.0b3"
PERFORMER "Konstantin Klashtorni"
TITLE "Smooth Jazz III"
FILE "Konstantin Klashtorni - Smooth Jazz III.flac" WAVE
TRACK 01 AUDIO
TITLE "Irresistible"
PERFORMER "Konstantin Klashtorni"
FLAGS DCP
INDEX 01 00:00:00
TRACK 02 AUDIO
TITLE "Walking on Dream"
PERFORMER "Konstantin Klashtorni"
FLAGS DCP
INDEX 01 04:12:48
TRACK 03 AUDIO
TITLE "Humble and Kind"
PERFORMER "Konstantin Klashtorni"
FLAGS DCP
INDEX 01 08:06:33
TRACK 04 AUDIO
TITLE "Good to Be Alive"
PERFORMER "Konstantin Klashtorni"
FLAGS DCP
INDEX 01 12:13:13
TRACK 05 AUDIO
TITLE "In the Night"
PERFORMER "Konstantin Klashtorni"
FLAGS DCP
INDEX 01 16:24:58
TRACK 06 AUDIO
TITLE "Used to Love You"
PERFORMER "Konstantin Klashtorni"
FLAGS DCP
INDEX 01 20:31:32
TRACK 07 AUDIO
TITLE "One Call Away"
PERFORMER "Konstantin Klashtorni"
FLAGS DCP
INDEX 01 24:39:16
TRACK 08 AUDIO
TITLE "You Should Be Here"
PERFORMER "Konstantin Klashtorni"
FLAGS DCP
INDEX 01 29:14:24
TRACK 09 AUDIO
TITLE "Stand by You"
PERFORMER "Konstantin Klashtorni"
FLAGS DCP
INDEX 01 33:16:39
TRACK 10 AUDIO
TITLE "On My Mind"
PERFORMER "Konstantin Klashtorni"
FLAGS DCP
INDEX 01 37:30:09
Kool&Klean
2010 - Volume I - 60:33

Костянтин Кляшторний (Konstantin Klashtorni) | Дискографiя (21CD) (2004-2017) [FLAC] | Smooth Jazz / Chill Out

Треклист:
01. My World (5:25)
02. Vanilla Twilight (5:52)
03. Southern Voice (5:40)
04. The Fall (4:38)
05. Sunrise (5:11)
06. Learn To Live (3:30)
07. Defying Gravity (5:42)
08. Fireflies (5:23)
09. I Look To You (4:51)
10. Ocean Eyes (4:14)
11. The Sea (6:12)
12. Still (3:48)

Бітрейт: 896 кб/с
EAC
Exact Audio Copy V0.99 prebeta 5 from 4. May 2009

Отчёт EAC об извлечении, выполненном 16. июня 2013, 14:13

Konstantin Klashtorni / Kool & Klean Volume I

Дисковод: PLEXTOR DVDR PX-880SA Adapter: 1 ID: 0

Режим чтения : Достоверность
Использование точного потока : Да
Отключение кэша аудио : Да
Использование указателей C2 : Нет

Коррекция смещения при чтении : 6
Способность читать области Lead-in и Lead-out : Нет
Заполнение пропущенных сэмплов тишиной : Да
Удаление блоков с тишиной в начале и конце : Нет
При вычислениях CRC использовались нулевые сэмплы : Да
Интерфейс : Установленный внешний ASPI-интерфейс

Выходной формат : Пользовательский кодировщик
Выбранный битрейт : 1024 kBit/s
Качество : Высокий
Добавление ID3-тэга : Нет
Утилита сжатия : C:\Program Files\Exact Audio Copy\FLAC\FLAC.EXE
Дополнительные параметры : -10 -V -T "ARTIST=%a" -T "TITLE=%t" -T "ALBUM=%g" -T "DATE=%y" -T "TRACKNUMBER=%n" -T "GENRE=%m" -T "COMMENT=%e" %s -o %d

TOC извлечённого CD

Трек | Старт | Длительность | Начальный сектор | Конечный сектор
---------------------------------------------------------------------
1 | 0:00.00 | 5:25.69 | 0 | 24443
2 | 5:25.69 | 5:52.08 | 24444 | 50851
3 | 11:18.02 | 5:40.48 | 50852 | 76399
4 | 16:58.50 | 4:38.47 | 76400 | 97296
5 | 21:37.22 | 5:11.11 | 97297 | 120632
6 | 26:48.33 | 3:30.12 | 120633 | 136394
7 | 30:18.45 | 5:42.64 | 136395 | 162108
8 | 36:01.34 | 5:23.63 | 162109 | 186396
9 | 41:25.22 | 4:51.52 | 186397 | 208273
10 | 46:16.74 | 4:14.69 | 208274 | 227392
11 | 50:31.68 | 6:12.32 | 227393 | 255324
12 | 56:44.25 | 3:48.53 | 255325 | 272477

Характеристики диапазона извлечения и сообщения об ошибках

Выбранный диапазон

Имя файла D:\BitComet\Kool&Klean(flac)\2010 - Volume I\Konstantin Klashtorni - Kool & Klean Volume I.wav

Пиковый уровень 100.0 %
Качество диапазона 100.0 %
CRC теста CBDD2C91
CRC копии CBDD2C91
Копирование... OK

Ошибок не произошло

AccurateRip: сводка

Трек 1 нет в базе данных
Трек 2 нет в базе данных
Трек 3 нет в базе данных
Трек 4 нет в базе данных
Трек 5 нет в базе данных
Трек 6 нет в базе данных
Трек 7 нет в базе данных
Трек 8 нет в базе данных
Трек 9 нет в базе данных
Трек 10 нет в базе данных
Трек 11 нет в базе данных
Трек 12 нет в базе данных

Ни одного трека нет в базе AccurateRip

Конец отчёта
(.CUE)
REM GENRE "Smooth Jazz"
REM DATE 2010
REM DISCID 960E310C
REM COMMENT "ExactAudioCopy v0.99pb5"
PERFORMER "Konstantin Klashtorni"
TITLE "Kool & Klean Volume I "
FILE "Konstantin Klashtorni - Kool & Klean Volume I.flac" WAVE
TRACK 01 AUDIO
TITLE "My World"
PERFORMER "Konstantin Klashtorni"
FLAGS DCP
INDEX 01 00:00:00
TRACK 02 AUDIO
TITLE "Vanilla Twilight"
PERFORMER "Konstantin Klashtorni"
FLAGS DCP
INDEX 01 05:25:69
TRACK 03 AUDIO
TITLE "Southern Voice"
PERFORMER "Konstantin Klashtorni"
FLAGS DCP
INDEX 01 11:18:02
TRACK 04 AUDIO
TITLE "The Fall"
PERFORMER "Konstantin Klashtorni"
FLAGS DCP
INDEX 01 16:58:50
TRACK 05 AUDIO
TITLE "Sunrise"
PERFORMER "Konstantin Klashtorni"
FLAGS DCP
INDEX 01 21:37:22
TRACK 06 AUDIO
TITLE "Learn To Live"
PERFORMER "Konstantin Klashtorni"
FLAGS DCP
INDEX 01 26:48:33
TRACK 07 AUDIO
TITLE "Defying Gravity"
PERFORMER "Konstantin Klashtorni"
FLAGS DCP
INDEX 01 30:18:45
TRACK 08 AUDIO
TITLE "Fireflies"
PERFORMER "Konstantin Klashtorni"
FLAGS DCP
INDEX 01 36:01:34
TRACK 09 AUDIO
TITLE "I Look To You"
PERFORMER "Konstantin Klashtorni"
FLAGS DCP
INDEX 01 41:25:22
TRACK 10 AUDIO
TITLE "Ocean Eyes"
PERFORMER "Konstantin Klashtorni"
FLAGS DCP
INDEX 01 46:16:74
TRACK 11 AUDIO
TITLE "The Sea"
PERFORMER "Konstantin Klashtorni"
FLAGS DCP
INDEX 01 50:31:68
TRACK 12 AUDIO
TITLE "Still"
PERFORMER "Konstantin Klashtorni"
FLAGS DCP
INDEX 01 56:44:25
2011 - Volume II - 49:06

Костянтин Кляшторний (Konstantin Klashtorni) | Дискографiя (21CD) (2004-2017) [FLAC] | Smooth Jazz / Chill Out

Треклист:
01. Far Away (4:04)
02. Look At Me Now (4:48)
03. Now Or Never (3:56)
04. Dream (3:58)
05. Lost (4:33)
06. So What (4:51)
07. Caught My Eye (5:06)
08. Reality (4:28)
09. I Smile (5:10)
10. Share My Life (4:16)
11. Walking (3:56)

Бітрейт: 918 кб/с
EAC
Exact Audio Copy V0.99 prebeta 5 from 4. May 2009

Отчёт EAC об извлечении, выполненном 16. июня 2013, 13:36

Kool&Klean / Volume II

Дисковод: PLEXTOR DVDR PX-880SA Adapter: 1 ID: 0

Режим чтения : Достоверность
Использование точного потока : Да
Отключение кэша аудио : Да
Использование указателей C2 : Нет

Коррекция смещения при чтении : 6
Способность читать области Lead-in и Lead-out : Нет
Заполнение пропущенных сэмплов тишиной : Да
Удаление блоков с тишиной в начале и конце : Нет
При вычислениях CRC использовались нулевые сэмплы : Да
Интерфейс : Установленный внешний ASPI-интерфейс

Выходной формат : Пользовательский кодировщик
Выбранный битрейт : 1024 kBit/s
Качество : Высокий
Добавление ID3-тэга : Нет
Утилита сжатия : C:\Program Files\Exact Audio Copy\FLAC\FLAC.EXE
Дополнительные параметры : -10 -V -T "ARTIST=%a" -T "TITLE=%t" -T "ALBUM=%g" -T "DATE=%y" -T "TRACKNUMBER=%n" -T "GENRE=%m" -T "COMMENT=%e" %s -o %d

TOC извлечённого CD

Трек | Старт | Длительность | Начальный сектор | Конечный сектор
---------------------------------------------------------------------
1 | 0:00.00 | 4:03.63 | 0 | 18287
2 | 4:03.63 | 4:48.21 | 18288 | 39908
3 | 8:52.09 | 3:55.64 | 39909 | 57597
4 | 12:47.73 | 3:58.22 | 57598 | 75469
5 | 16:46.20 | 4:33.20 | 75470 | 95964
6 | 21:19.40 | 4:50.72 | 95965 | 117786
7 | 26:10.37 | 5:05.73 | 117787 | 140734
8 | 31:16.35 | 4:27.41 | 140735 | 160800
9 | 35:44.01 | 5:10.14 | 160801 | 184064
10 | 40:54.15 | 4:16.00 | 184065 | 203264
11 | 45:10.15 | 3:55.72 | 203265 | 220961

Характеристики диапазона извлечения и сообщения об ошибках

Выбранный диапазон

Имя файла D:\BitComet\Kool&Klean(flac)\2011 - Volume II\Kool&Klean - Volume II.wav

Пиковый уровень 100.0 %
Качество диапазона 100.0 %
CRC теста 9DF2DAB3
CRC копии 9DF2DAB3
Копирование... OK

Ошибок не произошло

AccurateRip: сводка

Трек 1 нет в базе данных
Трек 2 нет в базе данных
Трек 3 нет в базе данных
Трек 4 нет в базе данных
Трек 5 нет в базе данных
Трек 6 нет в базе данных
Трек 7 нет в базе данных
Трек 8 нет в базе данных
Трек 9 нет в базе данных
Трек 10 нет в базе данных
Трек 11 нет в базе данных

Ни одного трека нет в базе AccurateRip

Конец отчёта
(.CUE)
REM GENRE "Smooth Jazz"
REM DATE 2011
REM DISCID 950B820B
REM COMMENT "ExactAudioCopy v0.99pb5"
PERFORMER "Kool&Klean"
TITLE "Volume II"
FILE "Kool&Klean - Volume II.flac" WAVE
TRACK 01 AUDIO
TITLE "Far Away"
PERFORMER "Kool&Klean"
FLAGS DCP
INDEX 01 00:00:00
TRACK 02 AUDIO
TITLE "Look At Me Now"
PERFORMER "Kool&Klean"
FLAGS DCP
INDEX 01 04:03:63
TRACK 03 AUDIO
TITLE "Now Or Never"
PERFORMER "Kool&Klean"
FLAGS DCP
INDEX 01 08:52:09
TRACK 04 AUDIO
TITLE "Dream"
PERFORMER "Kool&Klean"
FLAGS DCP
INDEX 01 12:47:73
TRACK 05 AUDIO
TITLE "Lost"
PERFORMER "Kool&Klean"
FLAGS DCP
INDEX 01 16:46:20
TRACK 06 AUDIO
TITLE "So What"
PERFORMER "Kool&Klean"
FLAGS DCP
INDEX 01 21:19:40
TRACK 07 AUDIO
TITLE "Caught My Eye"
PERFORMER "Kool&Klean"
FLAGS DCP
INDEX 01 26:10:37
TRACK 08 AUDIO
TITLE "Reality"
PERFORMER "Kool&Klean"
FLAGS DCP
INDEX 01 31:16:35
TRACK 09 AUDIO
TITLE "I Smile"
PERFORMER "Kool&Klean"
FLAGS DCP
INDEX 01 35:44:01
TRACK 10 AUDIO
TITLE "Share My Life"
PERFORMER "Kool&Klean"
FLAGS DCP
INDEX 01 40:54:15
TRACK 11 AUDIO
TITLE "Walking"
PERFORMER "Kool&Klean"
FLAGS DCP
INDEX 01 45:10:15
2012 - Volume III - 60:55

Костянтин Кляшторний (Konstantin Klashtorni) | Дискографiя (21CD) (2004-2017) [FLAC] | Smooth Jazz / Chill Out

Треклист:
01. Sail (5:07)
02. It Will Rain (4:10)
03. Twilight (4:38)
04. Drift (6:09)
05. Good Life (4:27)
06. Inner Communication (4:39)
07. Just A Kiss (4:31)
08. Everything (4:03)
09. Without You (3:39)
10. The Way You Look Tonight (5:20)
11. Paradise (5:22)
12. I Wanna Know (4:50)
13. Time Together (4:01)

Бітрейт: 857 кб/с
EAC
Exact Audio Copy V0.99 prebeta 5 from 4. May 2009

Отчёт EAC об извлечении, выполненном 16. июня 2013, 14:46

Konstantin Klashtorni / Kool & Klean Volume III

Дисковод: PLEXTOR DVDR PX-880SA Adapter: 1 ID: 0

Режим чтения : Достоверность
Использование точного потока : Да
Отключение кэша аудио : Да
Использование указателей C2 : Нет

Коррекция смещения при чтении : 6
Способность читать области Lead-in и Lead-out : Нет
Заполнение пропущенных сэмплов тишиной : Да
Удаление блоков с тишиной в начале и конце : Нет
При вычислениях CRC использовались нулевые сэмплы : Да
Интерфейс : Установленный внешний ASPI-интерфейс

Выходной формат : Пользовательский кодировщик
Выбранный битрейт : 1024 kBit/s
Качество : Высокий
Добавление ID3-тэга : Нет
Утилита сжатия : C:\Program Files\Exact Audio Copy\FLAC\FLAC.EXE
Дополнительные параметры : -10 -V -T "ARTIST=%a" -T "TITLE=%t" -T "ALBUM=%g" -T "DATE=%y" -T "TRACKNUMBER=%n" -T "GENRE=%m" -T "COMMENT=%e" %s -o %d

TOC извлечённого CD

Трек | Старт | Длительность | Начальный сектор | Конечный сектор
---------------------------------------------------------------------
1 | 0:00.00 | 5:06.70 | 0 | 23019
2 | 5:06.70 | 4:10.33 | 23020 | 41802
3 | 9:17.28 | 4:37.43 | 41803 | 62620
4 | 13:54.71 | 6:08.51 | 62621 | 90271
5 | 20:03.47 | 4:27.25 | 90272 | 110321
6 | 24:30.72 | 4:38.48 | 110322 | 131219
7 | 29:09.45 | 4:30.53 | 131220 | 151522
8 | 33:40.23 | 4:02.67 | 151523 | 169739
9 | 37:43.15 | 3:39.21 | 169740 | 186185
10 | 41:22.36 | 5:19.69 | 186186 | 210179
11 | 46:42.30 | 5:21.53 | 210180 | 234307
12 | 52:04.08 | 4:50.26 | 234308 | 256083
13 | 56:54.34 | 4:01.31 | 256084 | 274189

Характеристики диапазона извлечения и сообщения об ошибках

Выбранный диапазон

Имя файла D:\BitComet\Kool&Klean(flac)\2012 - Volume III\Konstantin Klashtorni - Kool & Klean Volume III.wav

Пиковый уровень 100.0 %
Качество диапазона 100.0 %
CRC теста B07C4DDD
CRC копии B07C4DDD
Копирование... OK

Ошибок не произошло

AccurateRip: сводка

Трек 1 нет в базе данных
Трек 2 нет в базе данных
Трек 3 нет в базе данных
Трек 4 нет в базе данных
Трек 5 нет в базе данных
Трек 6 нет в базе данных
Трек 7 нет в базе данных
Трек 8 нет в базе данных
Трек 9 нет в базе данных
Трек 10 нет в базе данных
Трек 11 нет в базе данных
Трек 12 нет в базе данных
Трек 13 нет в базе данных

Ни одного трека нет в базе AccurateRip

Конец отчёта
(.CUE)
REM GENRE "Smooth Jazz"
REM DATE 2012
REM DISCID A40E470D
REM COMMENT "ExactAudioCopy v0.99pb5"
PERFORMER "Konstantin Klashtorni"
TITLE "Kool & Klean Volume III"
FILE "Konstantin Klashtorni - Kool & Klean Volume III.flac" WAVE
TRACK 01 AUDIO
TITLE "Sail"
PERFORMER "Konstantin Klashtorni"
FLAGS DCP
INDEX 01 00:00:00
TRACK 02 AUDIO
TITLE "It Will Rain"
PERFORMER "Konstantin Klashtorni"
FLAGS DCP
INDEX 01 05:06:70
TRACK 03 AUDIO
TITLE "Twilight"
PERFORMER "Konstantin Klashtorni"
FLAGS DCP
INDEX 01 09:17:28
TRACK 04 AUDIO
TITLE "Drift"
PERFORMER "Konstantin Klashtorni"
FLAGS DCP
INDEX 01 13:54:71
TRACK 05 AUDIO
TITLE "Good Life"
PERFORMER "Konstantin Klashtorni"
FLAGS DCP
INDEX 01 20:03:47
TRACK 06 AUDIO
TITLE "Inner Communication"
PERFORMER "Konstantin Klashtorni"
FLAGS DCP
INDEX 01 24:30:72
TRACK 07 AUDIO
TITLE "Just A Kiss"
PERFORMER "Konstantin Klashtorni"
FLAGS DCP
INDEX 01 29:09:45
TRACK 08 AUDIO
TITLE "Everything"
PERFORMER "Konstantin Klashtorni"
FLAGS DCP
INDEX 01 33:40:23
TRACK 09 AUDIO
TITLE "Without You"
PERFORMER "Konstantin Klashtorni"
FLAGS DCP
INDEX 01 37:43:15
TRACK 10 AUDIO
TITLE "The Way You Look Tonight"
PERFORMER "Konstantin Klashtorni"
FLAGS DCP
INDEX 01 41:22:36
TRACK 11 AUDIO
TITLE "Paradise"
PERFORMER "Konstantin Klashtorni"
FLAGS DCP
INDEX 01 46:42:30
TRACK 12 AUDIO
TITLE "I Wanna Know"
PERFORMER "Konstantin Klashtorni"
FLAGS DCP
INDEX 01 52:04:08
TRACK 13 AUDIO
TITLE "Time Together"
PERFORMER "Konstantin Klashtorni"
FLAGS DCP
INDEX 01 56:54:34
2013 - Volume IV - 49:38

Костянтин Кляшторний (Konstantin Klashtorni) | Дискографiя (21CD) (2004-2017) [FLAC] | Smooth Jazz / Chill Out

Треклист:
01. I Can Only Imagine (4:57)
02. Dream Weaver (4:56)
03. It’s Time (4:23)
04. Lights (5:11)
05. Misty Mountains (4:32)
06. Cruise (3:57)
07. Amazing (4:06)
08. Lately (4:26)
09. Begin Again (4:32)
10. Feel Again (4:12)
11. Beautiful Surprise (4:26)

Бітрейт: 876 кб/с
EAC
Exact Audio Copy V0.99 prebeta 5 from 4. May 2009

Отчёт EAC об извлечении, выполненном 16. июня 2013, 15:21

Konstantin Klashtorni / Kool & Klean Volume IV

Дисковод: PLEXTOR DVDR PX-880SA Adapter: 1 ID: 0

Режим чтения : Достоверность
Использование точного потока : Да
Отключение кэша аудио : Да
Использование указателей C2 : Нет

Коррекция смещения при чтении : 6
Способность читать области Lead-in и Lead-out : Нет
Заполнение пропущенных сэмплов тишиной : Да
Удаление блоков с тишиной в начале и конце : Нет
При вычислениях CRC использовались нулевые сэмплы : Да
Интерфейс : Установленный внешний ASPI-интерфейс

Выходной формат : Пользовательский кодировщик
Выбранный битрейт : 1024 kBit/s
Качество : Высокий
Добавление ID3-тэга : Нет
Утилита сжатия : C:\Program Files\Exact Audio Copy\FLAC\FLAC.EXE
Дополнительные параметры : -10 -V -T "ARTIST=%a" -T "TITLE=%t" -T "ALBUM=%g" -T "DATE=%y" -T "TRACKNUMBER=%n" -T "GENRE=%m" -T "COMMENT=%e" %s -o %d

TOC извлечённого CD

Трек | Старт | Длительность | Начальный сектор | Конечный сектор
---------------------------------------------------------------------
1 | 0:00.00 | 4:56.52 | 0 | 22251
2 | 4:56.52 | 4:56.08 | 22252 | 44459
3 | 9:52.60 | 4:23.13 | 44460 | 64197
4 | 14:15.73 | 5:11.03 | 64198 | 87525
5 | 19:27.01 | 4:32.21 | 87526 | 107946
6 | 23:59.22 | 3:57.17 | 107947 | 125738
7 | 27:56.39 | 4:05.67 | 125739 | 144180
8 | 32:02.31 | 4:25.68 | 144181 | 164123
9 | 36:28.24 | 4:32.34 | 164124 | 184557
10 | 41:00.58 | 4:11.50 | 184558 | 203432
11 | 45:12.33 | 4:26.04 | 203433 | 223386

Характеристики диапазона извлечения и сообщения об ошибках

Выбранный диапазон

Имя файла D:\BitComet\Kool&Klean(flac)\2013 - Volume IV\Konstantin Klashtorni - Kool & Klean Volume IV.wav

Пиковый уровень 100.0 %
Качество диапазона 100.0 %
CRC теста 2C6EDF0C
CRC копии 2C6EDF0C
Копирование... OK

Ошибок не произошло

AccurateRip: сводка

Трек 1 нет в базе данных
Трек 2 нет в базе данных
Трек 3 нет в базе данных
Трек 4 нет в базе данных
Трек 5 нет в базе данных
Трек 6 нет в базе данных
Трек 7 нет в базе данных
Трек 8 нет в базе данных
Трек 9 нет в базе данных
Трек 10 нет в базе данных
Трек 11 нет в базе данных

Ни одного трека нет в базе AccurateRip

Конец отчёта
(.CUE)
REM GENRE "Smooth Jazz"
REM DATE 2013
REM DISCID A40BA20B
REM COMMENT "ExactAudioCopy v0.99pb5"
PERFORMER "Konstantin Klashtorni"
TITLE "Kool & Klean Volume IV "
FILE "Konstantin Klashtorni - Kool & Klean Volume IV.flac" WAVE
TRACK 01 AUDIO
TITLE "I Can Only Imagine"
PERFORMER "Konstantin Klashtorni"
FLAGS DCP
INDEX 01 00:00:00
TRACK 02 AUDIO
TITLE "Dream Weaver"
PERFORMER "Konstantin Klashtorni"
FLAGS DCP
INDEX 01 04:56:52
TRACK 03 AUDIO
TITLE "It's Time"
PERFORMER "Konstantin Klashtorni"
FLAGS DCP
INDEX 01 09:52:60
TRACK 04 AUDIO
TITLE "Lights"
PERFORMER "Konstantin Klashtorni"
FLAGS DCP
INDEX 01 14:15:73
TRACK 05 AUDIO
TITLE "Misty Mountains"
PERFORMER "Konstantin Klashtorni"
FLAGS DCP
INDEX 01 19:27:01
TRACK 06 AUDIO
TITLE "Cruise"
PERFORMER "Konstantin Klashtorni"
FLAGS DCP
INDEX 01 23:59:22
TRACK 07 AUDIO
TITLE "Amazing"
PERFORMER "Konstantin Klashtorni"
FLAGS DCP
INDEX 01 27:56:39
TRACK 08 AUDIO
TITLE "Lately"
PERFORMER "Konstantin Klashtorni"
FLAGS DCP
INDEX 01 32:02:31
TRACK 09 AUDIO
TITLE "Begin Again"
PERFORMER "Konstantin Klashtorni"
FLAGS DCP
INDEX 01 36:28:24
TRACK 10 AUDIO
TITLE "Feel Again"
PERFORMER "Konstantin Klashtorni"
FLAGS DCP
INDEX 01 41:00:58
TRACK 11 AUDIO
TITLE "Beautiful Surprise"
PERFORMER "Konstantin Klashtorni"
FLAGS DCP
INDEX 01 45:12:33
2014 - Volume V - 62:42

Костянтин Кляшторний (Konstantin Klashtorni) | Дискографiя (21CD) (2004-2017) [FLAC] | Smooth Jazz / Chill Out

Треклист:
01. Turn Me On (4:18)
02. Kiss the Rain (4:52)
03. Counting Stars (5:18)
04. River Flows in You (4:37)
05. Gravity (5:19)
06. Clouds (4:32)
07. Revelation (4:46)
08. Solace (5:16)
09. New Life (4:48)
10. Let It Go (4:07)
11. Miracles (5:07)
12. A Sky Full of Stars (4:41)
13. Sunrise (5:00)

Бітрейт: 892 кб/с
EAC
Exact Audio Copy V1.0 beta 3 from 29. August 2011

Отчёт EAC об извлечении, выполненном 11. октября 2014, 16:56

Kool&Klean / Volume V

Дисковод: PLEXTOR DVDR PX-880SA Adapter: 1 ID: 0

Режим чтения : Достоверность
Использование точного потока : Да
Отключение кэша аудио : Да
Использование указателей C2 : Нет

Коррекция смещения при чтении : 6
Способность читать области Lead-in и Lead-out : Нет
Заполнение пропущенных сэмплов тишиной : Да
Удаление блоков с тишиной в начале и конце : Нет
При вычислениях CRC использовались нулевые сэмплы : Да
Интерфейс : Установленный внешний ASPI-интерфейс

Выходной формат : Пользовательский кодировщик
Выбранный битрейт : 1024 kBit/s
Качество : Высокий
Добавление ID3-тега : Нет
Утилита сжатия : C:\Program Files\Exact Audio Copy\FLAC\FLAC.EXE
Дополнительные параметры : -10 -V -T "ARTIST=%artist%" -T "ALBUM=%albumtitle%" -T "DATE=%year%" -T "GENRE=%genre%" -T "COMMENT=ripped by izia1956" %source%

TOC извлечённого CD

Трек | Старт | Длительность | Начальный сектор | Конечный сектор
---------------------------------------------------------------------
1 | 0:00.00 | 4:18.28 | 0 | 19377
2 | 4:18.28 | 4:51.61 | 19378 | 41263
3 | 9:10.14 | 5:17.67 | 41264 | 65105
4 | 14:28.06 | 4:37.21 | 65106 | 85901
5 | 19:05.27 | 5:18.72 | 85902 | 109823
6 | 24:24.24 | 4:32.10 | 109824 | 130233
7 | 28:56.34 | 4:46.12 | 130234 | 151695
8 | 33:42.46 | 5:15.71 | 151696 | 175391
9 | 38:58.42 | 4:48.33 | 175392 | 197024
10 | 43:47.00 | 4:07.16 | 197025 | 215565
11 | 47:54.16 | 5:07.14 | 215566 | 238604
12 | 53:01.30 | 4:41.00 | 238605 | 259679
13 | 57:42.30 | 5:00.34 | 259680 | 282213

Характеристики диапазона извлечения и сообщения об ошибках

Выбранный диапазон

Имя файла D:\BitComet\Konstantin Klashtorni (flac)\Kool&Klean\2014 - Volume V\Kool&Klean - Volume V.wav

Пиковый уровень 100.0 %
Скорость извлечения 6.7 X
Качество диапазона 100.0 %
CRC теста 028B8157
CRC копии 028B8157
Копирование... OK

Ошибок не произошло

AccurateRip: сводка

Трек 1 отсутствует в базе данных
Трек 2 отсутствует в базе данных
Трек 3 отсутствует в базе данных
Трек 4 отсутствует в базе данных
Трек 5 отсутствует в базе данных
Трек 6 отсутствует в базе данных
Трек 7 отсутствует в базе данных
Трек 8 отсутствует в базе данных
Трек 9 отсутствует в базе данных
Трек 10 отсутствует в базе данных
Трек 11 отсутствует в базе данных
Трек 12 отсутствует в базе данных
Трек 13 отсутствует в базе данных

Ни одного трека нет в базе AccurateRip

Конец отчёта

==== Контрольная сумма отчёта 2B98A40528CC59EA40CB2B51E4E65940E94A39BFBAF9CA55D74593E3AAF979FC ====
(.CUE)
REM GENRE "Smooth Jazz"
REM DATE 2014
REM DISCID B10EB20D
REM COMMENT "ExactAudioCopy v1.0b3"
PERFORMER "Kool&Klean"
TITLE "Volume V"
FILE "Kool&Klean - Volume V.flac" WAVE
TRACK 01 AUDIO
TITLE "Turn me on"
PERFORMER "Kool&Klean"
FLAGS DCP
INDEX 01 00:00:00
TRACK 02 AUDIO
TITLE "Kiss the rain"
PERFORMER "Kool&Klean"
FLAGS DCP
INDEX 01 04:18:28
TRACK 03 AUDIO
TITLE "Counting stars"
PERFORMER "Kool&Klean"
FLAGS DCP
INDEX 01 09:10:14
TRACK 04 AUDIO
TITLE "River flows in you"
PERFORMER "Kool&Klean"
FLAGS DCP
INDEX 01 14:28:06
TRACK 05 AUDIO
TITLE "Gravity"
PERFORMER "Kool&Klean"
FLAGS DCP
INDEX 01 19:05:27
TRACK 06 AUDIO
TITLE "Clouds"
PERFORMER "Kool&Klean"
FLAGS DCP
INDEX 01 24:24:24
TRACK 07 AUDIO
TITLE "Revelation"
PERFORMER "Kool&Klean"
FLAGS DCP
INDEX 01 28:56:34
TRACK 08 AUDIO
TITLE "Solace"
PERFORMER "Kool&Klean"
FLAGS DCP
INDEX 01 33:42:46
TRACK 09 AUDIO
TITLE "New life"
PERFORMER "Kool&Klean"
FLAGS DCP
INDEX 01 38:58:42
TRACK 10 AUDIO
TITLE "Let it go"
PERFORMER "Kool&Klean"
FLAGS DCP
INDEX 01 43:47:00
TRACK 11 AUDIO
TITLE "Miracles"
PERFORMER "Kool&Klean"
FLAGS DCP
INDEX 01 47:54:16
TRACK 12 AUDIO
TITLE "A sky full of stars"
PERFORMER "Kool&Klean"
FLAGS DCP
INDEX 01 53:01:30
TRACK 13 AUDIO
TITLE "Sunrise"
PERFORMER "Kool&Klean"
FLAGS DCP
INDEX 01 57:42:30
2016 - Volume VI - 49:17

Костянтин Кляшторний (Konstantin Klashtorni) | Дискографiя (21CD) (2004-2017) [FLAC] | Smooth Jazz / Chill Out

Треклист:
01. Worth (4:47)
02. Flawless (5:03)
03. Live from Your Heart (4:28)
04. Touch the Sky (4:53)
05. The Hills (5:01)
06. Feeling Good (4:18)
07. Feel the Light (5:30)
08. Here and Now (5:21)
09. Winelight (5:01)
10. Take Your Time (4:54)

Бітрейт: 866 кб/с
EAC
Exact Audio Copy V1.0 beta 3 from 29. August 2011

Отчёт EAC об извлечении, выполненном 30. января 2016, 20:53

Konstantin Klashtorni / Kool&Klean - Volume VI

Дисковод: ATAPI iHAS424 A Adapter: 0 ID: 0

Режим чтения : Достоверность
Использование точного потока : Да
Отключение кэша аудио : Да
Использование указателей C2 : Нет

Коррекция смещения при чтении : 6
Способность читать области Lead-in и Lead-out : Нет
Заполнение пропущенных сэмплов тишиной : Да
Удаление блоков с тишиной в начале и конце : Нет
При вычислениях CRC использовались нулевые сэмплы : Да
Интерфейс : Установленный внешний ASPI-интерфейс

Выходной формат : Пользовательский кодировщик
Выбранный битрейт : 1024 kBit/s
Качество : Высокий
Добавление ID3-тега : Нет
Утилита сжатия : C:\Program Files\Exact Audio Copy\FLAC\FLAC.EXE
Дополнительные параметры : -8 -V -T "ARTIST=%artist%" -T "ALBUM=%albumtitle%" -T "DATE=%year%" -T "GENRE=%genre%" -T "COMMENT=ripped by izia1956" %source%

TOC извлечённого CD

Трек | Старт | Длительность | Начальный сектор | Конечный сектор
---------------------------------------------------------------------
1 | 0:00.00 | 4:47.03 | 0 | 21527
2 | 4:47.03 | 5:02.37 | 21528 | 44214
3 | 9:49.40 | 4:28.19 | 44215 | 64333
4 | 14:17.59 | 4:53.26 | 64334 | 86334
5 | 19:11.10 | 5:00.72 | 86335 | 108906
6 | 24:12.07 | 4:18.18 | 108907 | 128274
7 | 28:30.25 | 5:30.10 | 128275 | 153034
8 | 34:00.35 | 5:21.37 | 153035 | 177146
9 | 39:21.72 | 5:01.29 | 177147 | 199750
10 | 44:23.26 | 4:53.50 | 199751 | 221775

Характеристики диапазона извлечения и сообщения об ошибках

Выбранный диапазон

Имя файла D:\BitComet\Konstantin Klashtorni (flac)\Kool&Klean\2016 - Volume VI\Konstantin Klashtorni - Kool&Klean - Volume VI.wav

Пиковый уровень 100.0 %
Скорость извлечения 6.1 X
Качество диапазона 100.0 %
CRC теста D073AB98
CRC копии D073AB98
Копирование... OK

Ошибок не произошло

AccurateRip: сводка

Трек 1 отсутствует в базе данных
Трек 2 отсутствует в базе данных
Трек 3 отсутствует в базе данных
Трек 4 отсутствует в базе данных
Трек 5 отсутствует в базе данных
Трек 6 отсутствует в базе данных
Трек 7 отсутствует в базе данных
Трек 8 отсутствует в базе данных
Трек 9 отсутствует в базе данных
Трек 10 отсутствует в базе данных

Ни одного трека нет в базе AccurateRip

Конец отчёта

==== Контрольная сумма отчёта A751DD88F8BFD0379AE0847CBC71DC6C0E45AB90B4E587DC2E8E0050EE2AFBB1 ====
(.CUE)
REM GENRE "Smooth Jazz"
REM DATE 2016
REM DISCID 860B8D0A
REM COMMENT "ExactAudioCopy v1.0b3"
PERFORMER "Konstantin Klashtorni"
TITLE " Kool&Klean - Volume VI"
FILE "Konstantin Klashtorni - Kool&Klean - Volume VI.flac" WAVE
TRACK 01 AUDIO
TITLE "Worth"
PERFORMER "Konstantin Klashtorni"
FLAGS DCP
INDEX 01 00:00:00
TRACK 02 AUDIO
TITLE "Flawless"
PERFORMER "Konstantin Klashtorni"
FLAGS DCP
INDEX 00 04:46:70
INDEX 01 04:47:03
TRACK 03 AUDIO
TITLE "Live from Your Heart"
PERFORMER "Konstantin Klashtorni"
FLAGS DCP
INDEX 01 09:49:40
TRACK 04 AUDIO
TITLE "Touch the Sky"
PERFORMER "Konstantin Klashtorni"
FLAGS DCP
INDEX 01 14:17:59
TRACK 05 AUDIO
TITLE "The Hills"
PERFORMER "Konstantin Klashtorni"
FLAGS DCP
INDEX 01 19:11:10
TRACK 06 AUDIO
TITLE "Feeling Good"
PERFORMER "Konstantin Klashtorni"
FLAGS DCP
INDEX 01 24:12:07
TRACK 07 AUDIO
TITLE "Feel the Light"
PERFORMER "Konstantin Klashtorni"
FLAGS DCP
INDEX 01 28:30:25
TRACK 08 AUDIO
TITLE "Here and Now"
PERFORMER "Konstantin Klashtorni"
FLAGS DCP
INDEX 01 34:00:35
TRACK 09 AUDIO
TITLE "Winelight"
PERFORMER "Konstantin Klashtorni"
FLAGS DCP
INDEX 01 39:21:72
TRACK 10 AUDIO
TITLE "Take Your Time"
PERFORMER "Konstantin Klashtorni"
FLAGS DCP
INDEX 01 44:23:26
Chillaxing Jazz KolleKtion
2011 - Groove Jazz N Chill #1 - 50:14

Костянтин Кляшторний (Konstantin Klashtorni) | Дискографiя (21CD) (2004-2017) [FLAC] | Smooth Jazz / Chill Out

Треклист:
01. Summer Wind (5:08)
02. Colors (5:10)
03. Sigh (4:14)
04. Blue Water (4:00)
05. You And I (4:09)
06. Coolness (4:49)
07. Mornin' (4:30)
08. Return To Innocence (4:18)
09. Home (5:42)
10. Desire (4:20)
11. Smooth Journey (3:53)

Бітрейт: 908 кб/с
EAC
Exact Audio Copy V1.0 beta 3 from 29. August 2011

Отчёт EAC об извлечении, выполненном 11. октября 2014, 17:21

Chillaxing Jazz KolleKtion / Groove Jazz N Chill # 1

Дисковод: PLEXTOR DVDR PX-880SA Adapter: 1 ID: 0

Режим чтения : Достоверность
Использование точного потока : Да
Отключение кэша аудио : Да
Использование указателей C2 : Нет

Коррекция смещения при чтении : 6
Способность читать области Lead-in и Lead-out : Нет
Заполнение пропущенных сэмплов тишиной : Да
Удаление блоков с тишиной в начале и конце : Нет
При вычислениях CRC использовались нулевые сэмплы : Да
Интерфейс : Установленный внешний ASPI-интерфейс

Выходной формат : Пользовательский кодировщик
Выбранный битрейт : 1024 kBit/s
Качество : Высокий
Добавление ID3-тега : Нет
Утилита сжатия : C:\Program Files\Exact Audio Copy\FLAC\FLAC.EXE
Дополнительные параметры : -10 -V -T "ARTIST=%artist%" -T "ALBUM=%albumtitle%" -T "DATE=%year%" -T "GENRE=%genre%" -T "COMMENT=ripped by izia1956" %source%

TOC извлечённого CD

Трек | Старт | Длительность | Начальный сектор | Конечный сектор
---------------------------------------------------------------------
1 | 0:00.00 | 5:08.24 | 0 | 23123
2 | 5:08.24 | 5:09.70 | 23124 | 46368
3 | 10:18.19 | 4:14.27 | 46369 | 65445
4 | 14:32.46 | 4:00.06 | 65446 | 83451
5 | 18:32.52 | 4:09.07 | 83452 | 102133
6 | 22:41.59 | 4:49.09 | 102134 | 123817
7 | 27:30.68 | 4:29.52 | 123818 | 144044
8 | 32:00.45 | 4:18.36 | 144045 | 163430
9 | 36:19.06 | 5:42.05 | 163431 | 189085
10 | 42:01.11 | 4:19.65 | 189086 | 208575
11 | 46:21.01 | 3:53.30 | 208576 | 226080

Характеристики диапазона извлечения и сообщения об ошибках

Выбранный диапазон

Имя файла D:\BitComet\Konstantin Klashtorni (flac)\Chillaxing Jazz KolleKtion\Groove Jazz N Chill #1\Chillaxing Jazz KolleKtion - Groove Jazz N Chill # 1.wav

Пиковый уровень 100.0 %
Скорость извлечения 9.0 X
Качество диапазона 100.0 %
CRC теста E9119AF2
CRC копии E9119AF2
Копирование... OK

Ошибок не произошло

AccurateRip: сводка

Трек 1 отсутствует в базе данных
Трек 2 отсутствует в базе данных
Трек 3 отсутствует в базе данных
Трек 4 отсутствует в базе данных
Трек 5 отсутствует в базе данных
Трек 6 отсутствует в базе данных
Трек 7 отсутствует в базе данных
Трек 8 отсутствует в базе данных
Трек 9 отсутствует в базе данных
Трек 10 отсутствует в базе данных
Трек 11 отсутствует в базе данных

Ни одного трека нет в базе AccurateRip

Конец отчёта

==== Контрольная сумма отчёта F85F4EAF2B74C9134461862A819556322F1F13EFD48BF1915FC7B5A46E17A940 ====
(.CUE)
REM GENRE "Smooth Jazz"
REM DATE 2011
REM DISCID 7D0BC60B
REM COMMENT "ExactAudioCopy v1.0b3"
PERFORMER "Chillaxing Jazz KolleKtion"
TITLE "Groove Jazz N Chill # 1"
FILE "Chillaxing Jazz KolleKtion - Groove Jazz N Chill # 1.flac" WAVE
TRACK 01 AUDIO
TITLE "Summer Wind"
PERFORMER "Chillaxing Jazz KolleKtion"
FLAGS DCP
INDEX 01 00:00:00
TRACK 02 AUDIO
TITLE "Colors"
PERFORMER "Chillaxing Jazz KolleKtion"
FLAGS DCP
INDEX 01 05:08:24
TRACK 03 AUDIO
TITLE "Sigh"
PERFORMER "Chillaxing Jazz KolleKtion"
FLAGS DCP
INDEX 01 10:18:19
TRACK 04 AUDIO
TITLE "Blue Water"
PERFORMER "Chillaxing Jazz KolleKtion"
FLAGS DCP
INDEX 01 14:32:46
TRACK 05 AUDIO
TITLE "You And I"
PERFORMER "Chillaxing Jazz KolleKtion"
FLAGS DCP
INDEX 01 18:32:52
TRACK 06 AUDIO
TITLE "Coolness"
PERFORMER "Chillaxing Jazz KolleKtion"
FLAGS DCP
INDEX 01 22:41:59
TRACK 07 AUDIO
TITLE "Mornin'"
PERFORMER "Chillaxing Jazz KolleKtion"
FLAGS DCP
INDEX 01 27:30:68
TRACK 08 AUDIO
TITLE "Return To Innocence"
PERFORMER "Chillaxing Jazz KolleKtion"
FLAGS DCP
INDEX 01 32:00:45
TRACK 09 AUDIO
TITLE "Home"
PERFORMER "Chillaxing Jazz KolleKtion"
FLAGS DCP
INDEX 01 36:19:06
TRACK 10 AUDIO
TITLE "Desire"
PERFORMER "Chillaxing Jazz KolleKtion"
FLAGS DCP
INDEX 01 42:01:11
TRACK 11 AUDIO
TITLE "Smooth Journey"
PERFORMER "Chillaxing Jazz KolleKtion"
FLAGS DCP
INDEX 01 46:21:01
2012 - Groove Jazz N Chill #2 - 49:15

Костянтин Кляшторний (Konstantin Klashtorni) | Дискографiя (21CD) (2004-2017) [FLAC] | Smooth Jazz / Chill Out

Треклист:
01. Happiness (4:19)
02. Touch (4:01)
03. Evening Sun (5:23)
04. One Hundred Ways (4:01)
05. Just Ones (4:19)
06. Soulful (4:27)
07. Midnight City (4:23)
08. Daydream (4:19)
09. It Dews (5:00)
10. Butterfly (5:07)
11. All I Do (3:57)

Бітрейт: 929 кб/с
EAC
Exact Audio Copy V1.0 beta 3 from 29. August 2011

Отчёт EAC об извлечении, выполненном 11. октября 2014, 18:03

Chillaxing Jazz KolleKtion / Groove Jazz N Chill #2

Дисковод: PLEXTOR DVDR PX-880SA Adapter: 1 ID: 0

Режим чтения : Достоверность
Использование точного потока : Да
Отключение кэша аудио : Да
Использование указателей C2 : Нет

Коррекция смещения при чтении : 6
Способность читать области Lead-in и Lead-out : Нет
Заполнение пропущенных сэмплов тишиной : Да
Удаление блоков с тишиной в начале и конце : Нет
При вычислениях CRC использовались нулевые сэмплы : Да
Интерфейс : Установленный внешний ASPI-интерфейс

Выходной формат : Пользовательский кодировщик
Выбранный битрейт : 1024 kBit/s
Качество : Высокий
Добавление ID3-тега : Нет
Утилита сжатия : C:\Program Files\Exact Audio Copy\FLAC\FLAC.EXE
Дополнительные параметры : -10 -V -T "ARTIST=%artist%" -T "ALBUM=%albumtitle%" -T "DATE=%year%" -T "GENRE=%genre%" -T "COMMENT=ripped by izia1956" %source%

TOC извлечённого CD

Трек | Старт | Длительность | Начальный сектор | Конечный сектор
---------------------------------------------------------------------
1 | 0:00.00 | 4:18.39 | 0 | 19388
2 | 4:18.39 | 4:00.50 | 19389 | 37438
3 | 8:19.14 | 5:22.42 | 37439 | 61630
4 | 13:41.56 | 4:01.20 | 61631 | 79725
5 | 17:43.01 | 4:18.53 | 79726 | 99128
6 | 22:01.54 | 4:26.56 | 99129 | 119134
7 | 26:28.35 | 4:23.27 | 119135 | 138886
8 | 30:51.62 | 4:18.57 | 138887 | 158293
9 | 35:10.44 | 5:00.34 | 158294 | 180827
10 | 40:11.03 | 5:06.58 | 180828 | 203835
11 | 45:17.61 | 3:57.23 | 203836 | 221633

Характеристики диапазона извлечения и сообщения об ошибках

Выбранный диапазон

Имя файла D:\BitComet\Konstantin Klashtorni (flac)\Chillaxing Jazz KolleKtion\Groove Jazz N Chill #2\Chillaxing Jazz KolleKtion - Groove Jazz N Chill #2.wav

Пиковый уровень 100.0 %
Скорость извлечения 8.8 X
Качество диапазона 99.9 %
CRC теста FE3457EF
CRC копии FE3457EF
Копирование... OK

Ошибок не произошло

AccurateRip: сводка

Трек 1 отсутствует в базе данных
Трек 2 отсутствует в базе данных
Трек 3 отсутствует в базе данных
Трек 4 отсутствует в базе данных
Трек 5 отсутствует в базе данных
Трек 6 отсутствует в базе данных
Трек 7 отсутствует в базе данных
Трек 8 отсутствует в базе данных
Трек 9 отсутствует в базе данных
Трек 10 отсутствует в базе данных
Трек 11 отсутствует в базе данных

Ни одного трека нет в базе AccurateRip

Конец отчёта

==== Контрольная сумма отчёта 7504C56E1B6A8B38D0C61E5363B5D49420F29DD9BB0E080182B570141D0FFAFB ====
(.CUE)
REM GENRE "Smooth Jazz"
REM DATE 2012
REM DISCID 750B8B0B
REM COMMENT "ExactAudioCopy v1.0b3"
PERFORMER "Chillaxing Jazz KolleKtion"
TITLE "Groove Jazz N Chill #2"
FILE "Chillaxing Jazz KolleKtion - Groove Jazz N Chill #2.flac" WAVE
TRACK 01 AUDIO
TITLE "Happiness"
PERFORMER "Chillaxing Jazz KolleKtion"
FLAGS DCP
INDEX 01 00:00:00
TRACK 02 AUDIO
TITLE "Touch"
PERFORMER "Chillaxing Jazz KolleKtion"
FLAGS DCP
INDEX 01 04:18:39
TRACK 03 AUDIO
TITLE "Evening Sun"
PERFORMER "Chillaxing Jazz KolleKtion"
FLAGS DCP
INDEX 01 08:19:14
TRACK 04 AUDIO
TITLE "One Hundred Ways"
PERFORMER "Chillaxing Jazz KolleKtion"
FLAGS DCP
INDEX 01 13:41:56
TRACK 05 AUDIO
TITLE "Just Ones"
PERFORMER "Chillaxing Jazz KolleKtion"
FLAGS DCP
INDEX 01 17:43:01
TRACK 06 AUDIO
TITLE "Soulful"
PERFORMER "Chillaxing Jazz KolleKtion"
FLAGS DCP
INDEX 01 22:01:54
TRACK 07 AUDIO
TITLE "Midnight City"
PERFORMER "Chillaxing Jazz KolleKtion"
FLAGS DCP
INDEX 01 26:28:35
TRACK 08 AUDIO
TITLE "Daydream"
PERFORMER "Chillaxing Jazz KolleKtion"
FLAGS DCP
INDEX 01 30:51:62
TRACK 09 AUDIO
TITLE "It Dews"
PERFORMER "Chillaxing Jazz KolleKtion"
FLAGS DCP
INDEX 01 35:10:44
TRACK 10 AUDIO
TITLE "Butterfly"
PERFORMER "Chillaxing Jazz KolleKtion"
FLAGS DCP
INDEX 01 40:11:03
TRACK 11 AUDIO
TITLE "All I Do"
PERFORMER "Chillaxing Jazz KolleKtion"
FLAGS DCP
INDEX 01 45:17:61
2013 - Groove Jazz N Chill #3 - 48:43


Костянтин Кляшторний (Konstantin Klashtorni) | Дискографiя (21CD) (2004-2017) [FLAC] | Smooth Jazz / Chill Out


Треклист:
01. Have Your Way (5:16)
02. Good Morning (4:59)
03. Blessings (5:07)
04. That's Life (5:16)
05. Blue Pacific (4:38)
06. Beautiful Day (4:11)
07. Like a River (5:23)
08. Every Good Thing (4:57)
09. Inside You (4:33)
10. Nothing Without You (4:24)

Бітрейт: 873 кб/с
EAC
Exact Audio Copy V1.0 beta 3 from 29. August 2011

Отчёт EAC об извлечении, выполненном 11. октября 2014, 21:48

Chillaxing Jazz KolleKtion / Groove Jazz N Chill #3

Дисковод: PLEXTOR DVDR PX-880SA Adapter: 1 ID: 0

Режим чтения : Достоверность
Использование точного потока : Да
Отключение кэша аудио : Да
Использование указателей C2 : Нет

Коррекция смещения при чтении : 6
Способность читать области Lead-in и Lead-out : Нет
Заполнение пропущенных сэмплов тишиной : Да
Удаление блоков с тишиной в начале и конце : Нет
При вычислениях CRC использовались нулевые сэмплы : Да
Интерфейс : Установленный внешний ASPI-интерфейс

Выходной формат : Пользовательский кодировщик
Выбранный битрейт : 1024 kBit/s
Качество : Высокий
Добавление ID3-тега : Нет
Утилита сжатия : C:\Program Files\Exact Audio Copy\FLAC\FLAC.EXE
Дополнительные параметры : -10 -V -T "ARTIST=%artist%" -T "ALBUM=%albumtitle%" -T "DATE=%year%" -T "GENRE=%genre%" -T "COMMENT=ripped by izia1956" %source%

TOC извлечённого CD

Трек | Старт | Длительность | Начальный сектор | Конечный сектор
---------------------------------------------------------------------
1 | 0:00.00 | 5:15.69 | 0 | 23693
2 | 5:15.69 | 4:58.40 | 23694 | 46083
3 | 10:14.34 | 5:06.72 | 46084 | 69105
4 | 15:21.31 | 5:15.50 | 69106 | 92780
5 | 20:37.06 | 4:38.36 | 92781 | 113666
6 | 25:15.42 | 4:11.01 | 113667 | 132492
7 | 29:26.43 | 5:22.47 | 132493 | 156689
8 | 34:49.15 | 4:57.20 | 156690 | 178984
9 | 39:46.35 | 4:32.71 | 178985 | 199455
10 | 44:19.31 | 4:24.28 | 199456 | 219283

Характеристики диапазона извлечения и сообщения об ошибках

Выбранный диапазон

Имя файла D:\BitComet\Konstantin Klashtorni (flac)\Chillaxing Jazz KolleKtion\Groove Jazz N Chill #3\Chillaxing Jazz KolleKtion - Groove Jazz N Chill #3.wav

Пиковый уровень 100.0 %
Скорость извлечения 8.9 X
Качество диапазона 100.0 %
CRC теста B7440942
CRC копии B7440942
Копирование... OK

Ошибок не произошло

AccurateRip: сводка

Трек 1 отсутствует в базе данных
Трек 2 отсутствует в базе данных
Трек 3 отсутствует в базе данных
Трек 4 отсутствует в базе данных
Трек 5 отсутствует в базе данных
Трек 6 отсутствует в базе данных
Трек 7 отсутствует в базе данных
Трек 8 отсутствует в базе данных
Трек 9 отсутствует в базе данных
Трек 10 отсутствует в базе данных

Ни одного трека нет в базе AccurateRip

Конец отчёта

==== Контрольная сумма отчёта 9935043123FEB0A2DCA4E9900D0B4B0F7DF0646F79C9A7D416B657CA3F2434D9 ====
(.CUE)
REM GENRE "Smoooth Jazz"
REM DATE 2013
REM DISCID 8B0B6B0A
REM COMMENT "ExactAudioCopy v1.0b3"
PERFORMER "Chillaxing Jazz KolleKtion"
TITLE "Groove Jazz N Chill #3"
FILE "Chillaxing Jazz KolleKtion - Groove Jazz N Chill #3.flac" WAVE
TRACK 01 AUDIO
TITLE "Have Your Way"
PERFORMER "Chillaxing Jazz KolleKtion"
FLAGS DCP
INDEX 01 00:00:00
TRACK 02 AUDIO
TITLE "Good Morning"
PERFORMER "Chillaxing Jazz KolleKtion"
FLAGS DCP
INDEX 01 05:15:69
TRACK 03 AUDIO
TITLE "Blessings"
PERFORMER "Chillaxing Jazz KolleKtion"
FLAGS DCP
INDEX 01 10:14:34
TRACK 04 AUDIO
TITLE "That's Life"
PERFORMER "Chillaxing Jazz KolleKtion"
FLAGS DCP
INDEX 01 15:21:31
TRACK 05 AUDIO
TITLE "Blue Pacific"
PERFORMER "Chillaxing Jazz KolleKtion"
FLAGS DCP
INDEX 01 20:37:06
TRACK 06 AUDIO
TITLE "Beautiful Day"
PERFORMER "Chillaxing Jazz KolleKtion"
FLAGS DCP
INDEX 01 25:15:42
TRACK 07 AUDIO
TITLE "Like a River"
PERFORMER "Chillaxing Jazz KolleKtion"
FLAGS DCP
INDEX 01 29:26:43
TRACK 08 AUDIO
TITLE "Every Good Thing"
PERFORMER "Chillaxing Jazz KolleKtion"
FLAGS DCP
INDEX 01 34:49:15
TRACK 09 AUDIO
TITLE "Inside You"
PERFORMER "Chillaxing Jazz KolleKtion"
FLAGS DCP
INDEX 01 39:46:35
TRACK 10 AUDIO
TITLE "Nothing Without You"
PERFORMER "Chillaxing Jazz KolleKtion"
FLAGS DCP
INDEX 01 44:19:31
2015 - Groove Jazz N Chill #4 - 51:24

Костянтин Кляшторний (Konstantin Klashtorni) | Дискографiя (21CD) (2004-2017) [FLAC] | Smooth Jazz / Chill Out

Треклист:
01. Dreamcatcher (5:19)
02. Whispers (4:53)
03. Drops In The Ocean (4:11)
04. Beyond Me (5:26)
05. Wat A Wonderful World (5:23)
06. Key Of Sea (5:18)
07. Fill Me Up (5:22)
08. Once Upon A Dream (4:50)
09. Make It Rain (5:08)
10. Illumination (5:29)

Бітрейт: 874 кб/с
EAC
Exact Audio Copy V1.0 beta 3 from 29. August 2011

Отчёт EAC об извлечении, выполненном 7. февраля 2015, 12:40

Chillaxing Jazz KolleKtion / Groove Jazz N Chill #4

Дисковод: PLEXTOR DVDR PX-880SA Adapter: 1 ID: 0

Режим чтения : Достоверность
Использование точного потока : Да
Отключение кэша аудио : Да
Использование указателей C2 : Нет

Коррекция смещения при чтении : 6
Способность читать области Lead-in и Lead-out : Нет
Заполнение пропущенных сэмплов тишиной : Да
Удаление блоков с тишиной в начале и конце : Нет
При вычислениях CRC использовались нулевые сэмплы : Да
Интерфейс : Установленный внешний ASPI-интерфейс

Выходной формат : Пользовательский кодировщик
Выбранный битрейт : 1024 kBit/s
Качество : Высокий
Добавление ID3-тега : Нет
Утилита сжатия : C:\Program Files\Exact Audio Copy\FLAC\FLAC.EXE
Дополнительные параметры : -10 -V -T "ARTIST=%artist%" -T "ALBUM=%albumtitle%" -T "DATE=%year%" -T "GENRE=%genre%" -T "COMMENT=ripped by izia1956" %source%

TOC извлечённого CD

Трек | Старт | Длительность | Начальный сектор | Конечный сектор
---------------------------------------------------------------------
1 | 0:00.00 | 5:19.50 | 0 | 23974
2 | 5:19.50 | 4:53.67 | 23975 | 46016
3 | 10:13.42 | 4:11.46 | 46017 | 64887
4 | 14:25.13 | 5:26.50 | 64888 | 89387
5 | 19:51.63 | 5:23.29 | 89388 | 113641
6 | 25:15.17 | 5:18.12 | 113642 | 137503
7 | 30:33.29 | 5:22.69 | 137504 | 161722
8 | 35:56.23 | 4:50.10 | 161723 | 183482
9 | 40:46.33 | 5:08.18 | 183483 | 206600
10 | 45:54.51 | 5:29.27 | 206601 | 231302

Характеристики диапазона извлечения и сообщения об ошибках

Выбранный диапазон

Имя файла D:\BitComet\Konstantin Klashtorni (flac)\Chillaxing Jazz KolleKtion\2015 - Groove Jazz N Chill #4\Chillaxing Jazz KolleKtion - Groove Jazz N Chill #4.wav

Пиковый уровень 100.0 %
Скорость извлечения 2.6 X
Качество диапазона 100.0 %
CRC теста D1DE16B2
CRC копии D1DE16B2
Копирование... OK

Ошибок не произошло

AccurateRip: сводка

Трек 1 отсутствует в базе данных
Трек 2 отсутствует в базе данных
Трек 3 отсутствует в базе данных
Трек 4 отсутствует в базе данных
Трек 5 отсутствует в базе данных
Трек 6 отсутствует в базе данных
Трек 7 отсутствует в базе данных
Трек 8 отсутствует в базе данных
Трек 9 отсутствует в базе данных
Трек 10 отсутствует в базе данных

Ни одного трека нет в базе AccurateRip

Конец отчёта

==== Контрольная сумма отчёта 0165FC1AA96EFC80AEF35FE81F9EAE6D12A66C552091808ED9926CE2BADA42AE ====
(.CUE)
REM GENRE "Smooth Jazz"
REM DATE 2015
REM DISCID 8C0C0C0A
REM COMMENT "ExactAudioCopy v1.0b3"
PERFORMER "Chillaxing Jazz KolleKtion"
TITLE "Groove Jazz N Chill #4"
FILE "Chillaxing Jazz KolleKtion - Groove Jazz N Chill #4.flac" WAVE
TRACK 01 AUDIO
TITLE "Dreamcatcher"
PERFORMER "Chillaxing Jazz KolleKtion"
FLAGS DCP
INDEX 01 00:00:00
TRACK 02 AUDIO
TITLE "Whispers"
PERFORMER "Chillaxing Jazz KolleKtion"
FLAGS DCP
INDEX 01 05:19:50
TRACK 03 AUDIO
TITLE "Drops In The Ocean"
PERFORMER "Chillaxing Jazz KolleKtion"
FLAGS DCP
INDEX 01 10:13:42
TRACK 04 AUDIO
TITLE "Beyond Me"
PERFORMER "Chillaxing Jazz KolleKtion"
FLAGS DCP
INDEX 01 14:25:13
TRACK 05 AUDIO
TITLE "Wat A Wonderful World"
PERFORMER "Chillaxing Jazz KolleKtion"
FLAGS DCP
INDEX 01 19:51:63
TRACK 06 AUDIO
TITLE "Key Of Sea"
PERFORMER "Chillaxing Jazz KolleKtion"
FLAGS DCP
INDEX 01 25:15:17
TRACK 07 AUDIO
TITLE "Fill Me Up"
PERFORMER "Chillaxing Jazz KolleKtion"
FLAGS DCP
INDEX 01 30:33:29
TRACK 08 AUDIO
TITLE "Once Upon A Dream"
PERFORMER "Chillaxing Jazz KolleKtion"
FLAGS DCP
INDEX 01 35:56:23
TRACK 09 AUDIO
TITLE "Make It Rain"
PERFORMER "Chillaxing Jazz KolleKtion"
FLAGS DCP
INDEX 01 40:46:33
TRACK 10 AUDIO
TITLE "Illumination"
PERFORMER "Chillaxing Jazz KolleKtion"
FLAGS DCP
INDEX 01 45:54:51
2016 - Groove Jazz N Chill #5 - 52:03

Костянтин Кляшторний (Konstantin Klashtorni) | Дискографiя (21CD) (2004-2017) [FLAC] | Smooth Jazz / Chill Out

Треклист:
01. Wherever I Go (4:19)
02. Sentimental Things (5:14)
03. Send My Love (4:07)
04. Live on Forever (5:23)
05. The Sound of Silence (5:18)
06. My Favorite Things (4:45)
07. Butterfly Kisses (5:09)
08. Speak Life (4:40)
09. My Story (4:36)
10. Into You (4:20)
11. Made a Way (4:07)

Бітрейт: 843 кб/с
EAC
Exact Audio Copy V1.0 beta 3 from 29. August 2011

Отчёт EAC об извлечении, выполненном 4. августа 2016, 18:13

Chillaxing Jazz Kollektion / Groove Jazz N Chill #5

Дисковод: ATAPI iHAS424 A Adapter: 0 ID: 0

Режим чтения : Достоверность
Использование точного потока : Да
Отключение кэша аудио : Да
Использование указателей C2 : Нет

Коррекция смещения при чтении : 6
Способность читать области Lead-in и Lead-out : Нет
Заполнение пропущенных сэмплов тишиной : Да
Удаление блоков с тишиной в начале и конце : Нет
При вычислениях CRC использовались нулевые сэмплы : Да
Интерфейс : Установленный внешний ASPI-интерфейс

Выходной формат : Пользовательский кодировщик
Выбранный битрейт : 1024 kBit/s
Качество : Высокий
Добавление ID3-тега : Нет
Утилита сжатия : C:\Program Files\Exact Audio Copy\FLAC\FLAC.EXE
Дополнительные параметры : -8 -V -T "ARTIST=%artist%" -T "ALBUM=%albumtitle%" -T "DATE=%year%" -T "GENRE=%genre%" -T "COMMENT=ripped by izia1956" %source%

TOC извлечённого CD

Трек | Старт | Длительность | Начальный сектор | Конечный сектор
---------------------------------------------------------------------
1 | 0:00.00 | 4:19.06 | 0 | 19430
2 | 4:19.06 | 5:14.65 | 19431 | 43045
3 | 9:33.71 | 4:07.49 | 43046 | 61619
4 | 13:41.45 | 5:23.00 | 61620 | 85844
5 | 19:04.45 | 5:18.38 | 85845 | 109732
6 | 24:23.08 | 4:45.08 | 109733 | 131115
7 | 29:08.16 | 5:09.61 | 131116 | 154351
8 | 34:18.02 | 4:40.12 | 154352 | 175363
9 | 38:58.14 | 4:36.69 | 175364 | 196132
10 | 43:35.08 | 4:20.48 | 196133 | 215680
11 | 47:55.56 | 4:07.47 | 215681 | 234252

Характеристики диапазона извлечения и сообщения об ошибках

Выбранный диапазон

Имя файла D:\BitComet\Konstantin Klashtorni (flac)\Chillaxing Jazz KolleKtion\2016 - Groove Jazz N Chill #5\Chillaxing Jazz Kollektion - Groove Jazz N Chill #5.wav

Пиковый уровень 100.0 %
Скорость извлечения 6.2 X
Качество диапазона 100.0 %
CRC теста 9BDC12F2
CRC копии 9BDC12F2
Копирование... OK

Ошибок не произошло

AccurateRip: сводка

Трек 1 отсутствует в базе данных
Трек 2 отсутствует в базе данных
Трек 3 отсутствует в базе данных
Трек 4 отсутствует в базе данных
Трек 5 отсутствует в базе данных
Трек 6 отсутствует в базе данных
Трек 7 отсутствует в базе данных
Трек 8 отсутствует в базе данных
Трек 9 отсутствует в базе данных
Трек 10 отсутствует в базе данных
Трек 11 отсутствует в базе данных

Ни одного трека нет в базе AccurateRip

Конец отчёта

==== Контрольная сумма отчёта 2F59BD09EEC67B28E28A1809913A524AD65E5A09A675EB3C8A451D2D6927F2E7 ====
(.CUE)
REM GENRE "Smooth Jazz"
REM DATE 2016
REM DISCID 8B0C330B
REM COMMENT "ExactAudioCopy v1.0b3"
PERFORMER "Chillaxing Jazz Kollektion"
TITLE "Groove Jazz N Chill #5"
FILE "Chillaxing Jazz Kollektion - Groove Jazz N Chill #5.flac" WAVE
TRACK 01 AUDIO
TITLE "Wherever I Go"
PERFORMER "Chillaxing Jazz Kollektion"
FLAGS DCP
INDEX 01 00:00:00
TRACK 02 AUDIO
TITLE "Sentimental Things"
PERFORMER "Chillaxing Jazz Kollektion"
FLAGS DCP
INDEX 01 04:19:06
TRACK 03 AUDIO
TITLE "Send My Love"
PERFORMER "Chillaxing Jazz Kollektion"
FLAGS DCP
INDEX 01 09:33:71
TRACK 04 AUDIO
TITLE "Live on Forever"
PERFORMER "Chillaxing Jazz Kollektion"
FLAGS DCP
INDEX 01 13:41:45
TRACK 05 AUDIO
TITLE "The Sound of Silence"
PERFORMER "Chillaxing Jazz Kollektion"
FLAGS DCP
INDEX 01 19:04:45
TRACK 06 AUDIO
TITLE "My Favorite Things"
PERFORMER "Chillaxing Jazz Kollektion"
FLAGS DCP
INDEX 01 24:23:08
TRACK 07 AUDIO
TITLE "Butterfly Kisses"
PERFORMER "Chillaxing Jazz Kollektion"
FLAGS DCP
INDEX 01 29:08:16
TRACK 08 AUDIO
TITLE "Speak Life"
PERFORMER "Chillaxing Jazz Kollektion"
FLAGS DCP
INDEX 01 34:18:02
TRACK 09 AUDIO
TITLE "My Story"
PERFORMER "Chillaxing Jazz Kollektion"
FLAGS DCP
INDEX 01 38:58:14
TRACK 10 AUDIO
TITLE "Into You"
PERFORMER "Chillaxing Jazz Kollektion"
FLAGS DCP
INDEX 01 43:35:08
TRACK 11 AUDIO
TITLE "Made a Way"
PERFORMER "Chillaxing Jazz Kollektion"
FLAGS DCP
INDEX 01 47:55:56
Love Suggestions
2013 - Piano Night - 52:12

Костянтин Кляшторний (Konstantin Klashtorni) | Дискографiя (21CD) (2004-2017) [FLAC] | Smooth Jazz / Chill Out

Треклист:
01. Hey Girl (5:11)
02. Treasure (4:18)
03. Come & Get It (5:26)
04. What Makes You Beautiful (4:37)
05. Feel This Moment (4:24)
06. It Goes Like This (5:02)
07. Turn the Night Up (5:28)
08. Clarity (4:35)
09. See You Again (4:37)
10. Mirrors (4:29)
11. My Kind of Night (4:08)

Бітрейт: 869 кб/с
EAC
Exact Audio Copy V1.0 beta 3 from 29. August 2011

Отчёт EAC об извлечении, выполненном 3. ноября 2014, 20:34

Love Suggestions / Piano Night

Дисковод: PLEXTOR DVDR PX-880SA Adapter: 1 ID: 0

Режим чтения : Достоверность
Использование точного потока : Да
Отключение кэша аудио : Да
Использование указателей C2 : Нет

Коррекция смещения при чтении : 6
Способность читать области Lead-in и Lead-out : Нет
Заполнение пропущенных сэмплов тишиной : Да
Удаление блоков с тишиной в начале и конце : Нет
При вычислениях CRC использовались нулевые сэмплы : Да
Интерфейс : Установленный внешний ASPI-интерфейс

Выходной формат : Пользовательский кодировщик
Выбранный битрейт : 1024 kBit/s
Качество : Высокий
Добавление ID3-тега : Нет
Утилита сжатия : C:\Program Files\Exact Audio Copy\FLAC\FLAC.EXE
Дополнительные параметры : -10 -V -T "ARTIST=%artist%" -T "ALBUM=%albumtitle%" -T "DATE=%year%" -T "GENRE=%genre%" -T "COMMENT=ripped by izia1956" %source%

TOC извлечённого CD

Трек | Старт | Длительность | Начальный сектор | Конечный сектор
---------------------------------------------------------------------
1 | 0:00.00 | 5:11.01 | 0 | 23325
2 | 5:11.01 | 4:18.11 | 23326 | 42686
3 | 9:29.12 | 5:26.03 | 42687 | 67139
4 | 14:55.15 | 4:37.29 | 67140 | 87943
5 | 19:32.44 | 4:24.25 | 87944 | 107768
6 | 23:56.69 | 5:02.00 | 107769 | 130418
7 | 28:58.69 | 5:27.08 | 130419 | 154951
8 | 34:26.02 | 4:34.15 | 154952 | 175516
9 | 39:00.17 | 4:37.08 | 175517 | 196299
10 | 43:37.25 | 4:27.74 | 196300 | 216398
11 | 48:05.24 | 4:07.04 | 216399 | 234927

Характеристики диапазона извлечения и сообщения об ошибках

Выбранный диапазон

Имя файла D:\BitComet\Konstantin Klashtorni (flac)\Love Suggestions\2013 - Piano Night\Love Suggestions - Piano Night.wav

Пиковый уровень 100.0 %
Скорость извлечения 9.1 X
Качество диапазона 100.0 %
CRC теста 0E74BFE9
CRC копии 0E74BFE9
Копирование... OK

Ошибок не произошло

AccurateRip: сводка

Трек 1 отсутствует в базе данных
Трек 2 отсутствует в базе данных
Трек 3 отсутствует в базе данных
Трек 4 отсутствует в базе данных
Трек 5 отсутствует в базе данных
Трек 6 отсутствует в базе данных
Трек 7 отсутствует в базе данных
Трек 8 отсутствует в базе данных
Трек 9 отсутствует в базе данных
Трек 10 отсутствует в базе данных
Трек 11 отсутствует в базе данных

Ни одного трека нет в базе AccurateRip

Конец отчёта

==== Контрольная сумма отчёта 47A7603C63B95F6BE28BE5175125F0BEBFAD20D9324F6908CD3AD55E05BE13CD ====
(.CUE)
REM GENRE "Smooth Jazz"
REM DATE 2013
REM DISCID 9D0C3C0B
REM COMMENT "ExactAudioCopy v1.0b3"
PERFORMER "Love Suggestions"
TITLE "Piano Night"
FILE "Love Suggestions - Piano Night.flac" WAVE
TRACK 01 AUDIO
TITLE "Hey Girl"
PERFORMER "Love Suggestions"
FLAGS DCP
INDEX 01 00:00:00
TRACK 02 AUDIO
TITLE "Treasure"
PERFORMER "Love Suggestions"
FLAGS DCP
INDEX 01 05:11:01
TRACK 03 AUDIO
TITLE "Come & Get It"
PERFORMER "Love Suggestions"
FLAGS DCP
INDEX 01 09:29:12
TRACK 04 AUDIO
TITLE "What Makes You Beautiful"
PERFORMER "Love Suggestions"
FLAGS DCP
INDEX 01 14:55:15
TRACK 05 AUDIO
TITLE "Feel This Moment"
PERFORMER "Love Suggestions"
FLAGS DCP
INDEX 01 19:32:44
TRACK 06 AUDIO
TITLE "It Goes Like This"
PERFORMER "Love Suggestions"
FLAGS DCP
INDEX 01 23:56:69
TRACK 07 AUDIO
TITLE "Turn The Night Up"
PERFORMER "Love Suggestions"
FLAGS DCP
INDEX 01 28:58:69
TRACK 08 AUDIO
TITLE "Clarity"
PERFORMER "Love Suggestions"
FLAGS DCP
INDEX 01 34:26:02
TRACK 09 AUDIO
TITLE "See You Again"
PERFORMER "Love Suggestions"
FLAGS DCP
INDEX 01 39:00:17
TRACK 10 AUDIO
TITLE "Mirrors"
PERFORMER "Love Suggestions"
FLAGS DCP
INDEX 01 43:37:25
TRACK 11 AUDIO
TITLE "My Kind Of Night"
PERFORMER "Love Suggestions"
FLAGS DCP
INDEX 01 48:05:24
2014 - Guitar Night - 53:48

Костянтин Кляшторний (Konstantin Klashtorni) | Дискографiя (21CD) (2004-2017) [FLAC] | Smooth Jazz / Chill Out

Треклист:
01. It’s Our Time (5:48)
02. Stay (4:39)
03. Life Is Love (4:45)
04. Little Talks (5:02)
05. Put You to Bed (4:33)
06. Can’t Hold Us (4:00)
07. I Need Your Love (4:13)
08. Counting Stars (5:11)
09. Wake Me Up (6:38)
10. The Next Morning (4:46)
11. The Way (4:13)

Бітрейт: 875 кб/с
EAC
Exact Audio Copy V1.0 beta 3 from 29. August 2011

Отчёт EAC об извлечении, выполненном 3. ноября 2014, 20:13

Love Suggestions / Guitar Night

Дисковод: PLEXTOR DVDR PX-880SA Adapter: 1 ID: 0

Режим чтения : Достоверность
Использование точного потока : Да
Отключение кэша аудио : Да
Использование указателей C2 : Нет

Коррекция смещения при чтении : 6
Способность читать области Lead-in и Lead-out : Нет
Заполнение пропущенных сэмплов тишиной : Да
Удаление блоков с тишиной в начале и конце : Нет
При вычислениях CRC использовались нулевые сэмплы : Да
Интерфейс : Установленный внешний ASPI-интерфейс

Выходной формат : Пользовательский кодировщик
Выбранный битрейт : 1024 kBit/s
Качество : Высокий
Добавление ID3-тега : Нет
Утилита сжатия : C:\Program Files\Exact Audio Copy\FLAC\FLAC.EXE
Дополнительные параметры : -10 -V -T "ARTIST=%artist%" -T "ALBUM=%albumtitle%" -T "DATE=%year%" -T "GENRE=%genre%" -T "COMMENT=ripped by izia1956" %source%

TOC извлечённого CD

Трек | Старт | Длительность | Начальный сектор | Конечный сектор
---------------------------------------------------------------------
1 | 0:00.00 | 5:47.65 | 0 | 26089
2 | 5:47.65 | 4:39.28 | 26090 | 47042
3 | 10:27.18 | 4:45.11 | 47043 | 68428
4 | 15:12.29 | 5:02.23 | 68429 | 91101
5 | 20:14.52 | 4:33.04 | 91102 | 111580
6 | 24:47.56 | 4:00.01 | 111581 | 129581
7 | 28:47.57 | 4:12.54 | 129582 | 148535
8 | 33:00.36 | 5:11.03 | 148536 | 171863
9 | 38:11.39 | 6:38.12 | 171864 | 201725
10 | 44:49.51 | 4:46.02 | 201726 | 223177
11 | 49:35.53 | 4:13.10 | 223178 | 242162

Характеристики диапазона извлечения и сообщения об ошибках

Выбранный диапазон

Имя файла D:\BitComet\Konstantin Klashtorni (flac)\Love Suggestions\2014 - Guitar Night\Love Suggestions - Guitar Night.wav

Пиковый уровень 100.0 %
Скорость извлечения 9.1 X
Качество диапазона 100.0 %
CRC теста B18C7F08
CRC копии B18C7F08
Копирование... OK

Ошибок не произошло

AccurateRip: сводка

Трек 1 отсутствует в базе данных
Трек 2 отсутствует в базе данных
Трек 3 отсутствует в базе данных
Трек 4 отсутствует в базе данных
Трек 5 отсутствует в базе данных
Трек 6 отсутствует в базе данных
Трек 7 отсутствует в базе данных
Трек 8 отсутствует в базе данных
Трек 9 отсутствует в базе данных
Трек 10 отсутствует в базе данных
Трек 11 отсутствует в базе данных

Ни одного трека нет в базе AccurateRip

Конец отчёта

==== Контрольная сумма отчёта 0E4AB327A5BD434BD31AB7E17385687DE94BC95346DBA881B45A99CE32AABFFE ====
(.CUE)
REM GENRE "Smooth Jazz"
REM DATE 2014
REM DISCID B30C9C0B
REM COMMENT "ExactAudioCopy v1.0b3"
PERFORMER "Love Suggestions"
TITLE "Guitar Night"
FILE "Love Suggestions - Guitar Night.flac" WAVE
TRACK 01 AUDIO
TITLE "It's Our Time"
PERFORMER "Love Suggestions"
FLAGS DCP
INDEX 01 00:00:00
TRACK 02 AUDIO
TITLE "Stay"
PERFORMER "Love Suggestions"
FLAGS DCP
INDEX 01 05:47:65
TRACK 03 AUDIO
TITLE "Life Is Love"
PERFORMER "Love Suggestions"
FLAGS DCP
INDEX 01 10:27:18
TRACK 04 AUDIO
TITLE "Little Talks"
PERFORMER "Love Suggestions"
FLAGS DCP
INDEX 01 15:12:29
TRACK 05 AUDIO
TITLE "Put You To Bed"
PERFORMER "Love Suggestions"
FLAGS DCP
INDEX 01 20:14:52
TRACK 06 AUDIO
TITLE "Can't Hold Us"
PERFORMER "Love Suggestions"
FLAGS DCP
INDEX 01 24:47:56
TRACK 07 AUDIO
TITLE "I Need Your Love"
PERFORMER "Love Suggestions"
FLAGS DCP
INDEX 01 28:47:57
TRACK 08 AUDIO
TITLE "Counting Stars"
PERFORMER "Love Suggestions"
FLAGS DCP
INDEX 01 33:00:36
TRACK 09 AUDIO
TITLE "Wake Me Up"
PERFORMER "Love Suggestions"
FLAGS DCP
INDEX 01 38:11:39
TRACK 10 AUDIO
TITLE "The Next Morning"
PERFORMER "Love Suggestions"
FLAGS DCP
INDEX 01 44:49:51
TRACK 11 AUDIO
TITLE "The Way"
PERFORMER "Love Suggestions"
FLAGS DCP
INDEX 01 49:35:53
2017 - Sax Night - 51:03

Костянтин Кляшторний (Konstantin Klashtorni) | Дискографiя (21CD) (2004-2017) [FLAC] | Smooth Jazz / Chill Out

Треклист:
01. Thick Of It (5:43)
02. There Goes My Baby (4:17)
03. Shape Of You (5:06)
04. Don't Wanna Know (4:50)
05. That's What I Like (4:18)
06. U + Me (4:48)
07. She Lovin It (4:16)
08. Back 2 Life (4:15)
09. Better Man (4:57)
10. Don't Want You Back (4:40)
11. Million Reasons (3:54)

Бітрейт: 808-926 кб/с
auCDtect Task manager:
-----------------------

DON'T MODIFY THIS FILE

-----------------------

PERFORMER: auCDtect Task Manager, ver. 1.6.0 RC1 build 1.6.0.1
Copyright (c) 2008-2010 y-soft. All rights reserved
http://y-soft.org

ANALYZER: auCDtect: CD records authenticity detector, version 0.8.2
Copyright (c) 2004 Oleg Berngardt. All rights reserved.
Copyright (c) 2004 Alexander Djourik. All rights reserved.

FILE: 01 - Thick Of It.flac
Size: 39761261 Hash: D6CCA33E206CB2C65FDB591CFD21DADB Accuracy: -m0
Conclusion: CDDA 100%
Signature: 2C843925438A5279684EAE7CC992EAC7F243A6BB
FILE: 02 - There Goes My Baby.flac
Size: 28527958 Hash: 52D9CCA7AD04E5ED75E85E5BB12CA275 Accuracy: -m0
Conclusion: CDDA 100%
Signature: 9836BEFD8159826C165B9E371447EA72C78D1A67
FILE: 03 - Shape Of You.flac
Size: 32557048 Hash: 39AF10962D4D853DF4F381E28E74864F Accuracy: -m0
Conclusion: CDDA 94%
Signature: AAB7623F21499A717469C41DCFF1F9A1CA5AA524
FILE: 04 - Don't Wanna Know.flac
Size: 29330024 Hash: B005DC2108B529A935DD0E4981B044CF Accuracy: -m0
Conclusion: CDDA 100%
Signature: 2850FC35078CF8A774DACF0B256B8E61CBFF3F1E
FILE: 05 - That's What I Like.flac
Size: 28438694 Hash: 3F35DAD18872B8DB4AAD5AECA09F7C57 Accuracy: -m0
Conclusion: CDDA 100%
Signature: D2998B58E2162E9A58EBD7774AFB291629C31CB8
FILE: 06 - U + Me.flac
Size: 32163871 Hash: CFE6379C870E7B406F2DA65508E31563 Accuracy: -m0
Conclusion: CDDA 99%
Signature: C9B7A472E4776C7F917916DD5DA576C1F66991C5
FILE: 07 - She Lovin It.flac
Size: 26744691 Hash: 5442BCBDCBB46F38654D6562AF3B9215 Accuracy: -m0
Conclusion: CDDA 100%
Signature: F032AC55273F26F5B34EF36291AD29B1228F5A83
FILE: 08 - Back 2 Life.flac
Size: 29098121 Hash: 6D505FCEFE1DD2792DC9BFD192FD3492 Accuracy: -m0
Conclusion: CDDA 100%
Signature: 1E429BF683F4F17146AA6C45BFC289B2153E84B9
FILE: 09 - Better Man.flac
Size: 34443604 Hash: 192878CDAB10CADCA47DA924D3A1A7D8 Accuracy: -m0
Conclusion: CDDA 100%
Signature: 35D352752A12FD5433992E5DEEB0333D6AAF9333
FILE: 10 - Don't Want You Back.flac
Size: 29404722 Hash: 04DDC546CCB8231F9B82C21492565699 Accuracy: -m0
Conclusion: CDDA 100%
Signature: E4AE3AED9F7D13FE03F2E782BEF1A87575C67355
FILE: 11 - Million Reasons.flac
Size: 26303225 Hash: DA96EC862151C92606E353D51CCF10D0 Accuracy: -m0
Conclusion: CDDA 100%
Signature: 1D593FBBDF4851C6B1620ECBA1D384683E2777FF
Тривалість: 17:10:14
Мова: інструментальні композиції
Аудіо-кодек: FLAC
Бітрейт: 808-1040 кб/с
Джерело: трекер

Якщо Ви справді бажаєте підтримати українське - після прослуховування, якщо музика вам сподобалась, придбайте ліцензійний диск. Підтримаймо вітчизняних виконавців!


Золотий реліз (завантажене не впливає на рейтинг)
 Трекер:    Зареєстрований   

Завантажити / скачати українську музику



відео для новачків



 Зареєстрований:   2017-04-05 10:20
 Розмір:   6.97 GB 
 Оцінка музики:   10/10 (Голосів: 2)
   
ssTAss 
Модератор музики


З нами з: 05.07.08
Востаннє: 17.08.17
Повідомлень: 11750

2016-02-04 23:04  
kolpavel написано:
2007 - Saxing Up - Bee Gees - Love Songs - 40:49

про цей альбом на сторінці виконавця ні гу-гу, натомість бракує 2011 - Smooth Jazz II

kolpavel 
VIP


З нами з: 04.05.14
Востаннє: 17.08.17
Повідомлень: 1156

2016-02-05 01:55  
Saxing Up - Bee Gees - Love Songs https://www.discogs.com/Konstantin-Klashtorni-Saxing-Up-Bee-Gees-Love-Songs/release/8899069

P.S. Дякую izia1956 за пiдготовку цього релiзу.

Додано через 2 години 12 хвилин 3 секунди:

Тут https://toloka.to/t25886 теж Кляшторний у складi Jazz Vuiko Band.

kolpavel 
VIP


З нами з: 04.05.14
Востаннє: 17.08.17
Повідомлень: 1156

2016-02-05 08:20  
MP3 - https://toloka.to/t71605

Дякую izia1956 i Алекс_3107 за пiдготовку цього релiзу.

Gienek_Lwow 
VIP


З нами з: 28.09.10
Востаннє: 16.08.17
Повідомлень: 543

2016-02-05 10:59  
ssTAss написано:

kolpavel написано:
2007 - Saxing Up - Bee Gees - Love Songs - 40:49


Музика на цьому диску гарна, виконання безперечно теж професійне.
Але як завжди, не вміють диски зараз робити, перегруз шалений, всі інструменти звучать на одному рівні, компресія убойна, якась каша замість легкої музики....
Інші роботи не вантажив, але гадаю там така сама історія. Шкода вбиту працю музикантів.
Костянтин Кляшторний (Konstantin Klashtorni) | Дискографiя (21CD) (2004-2017) [FLAC] | Smooth Jazz / Chill Out

kolpavel 
VIP


З нами з: 04.05.14
Востаннє: 17.08.17
Повідомлень: 1156

2016-02-05 15:06  
Зараз це називають "Власним баченням". При чому валять на це, весь свій непрофесіоналізм, а якщо точніше - відсутність професіоналізму. Квiтне безрукiсть у всіх сферах нашого тлінного буття. Від зварника дооооо президента.
Gienek_Lwow 
VIP


З нами з: 28.09.10
Востаннє: 16.08.17
Повідомлень: 543

2016-02-05 20:18  
kolpavel , саме так.
ssTAss 
Модератор музики


З нами з: 05.07.08
Востаннє: 17.08.17
Повідомлень: 11750

2016-02-06 00:40  
kolpavel написано:
Saxing Up - Bee Gees - Love Songs iнколи iде як Various Artists

тоді його треба прибрати звідси
може написати на фейс Костянтину, спитати який стосунок він має до цього диску (і чи взагалі має)?

kolpavel 
VIP


З нами з: 04.05.14
Востаннє: 17.08.17
Повідомлень: 1156

2016-02-06 13:52  
ssTAss, все в сканах
Костянтин Кляшторний (Konstantin Klashtorni) | Дискографiя (21CD) (2004-2017) [FLAC] | Smooth Jazz / Chill Out

cwitka 
Свій


З нами з: 03.03.13
Востаннє: 16.08.17
Повідомлень: 77

2016-02-08 14:32  
Не знаю чому, але лічильник тут на сайті показує меншу кількість моєї віддачі, ніж у мене в торент-клієнті. І по іншій роздачі Кляшторного (в МП3) - така сама ситуація.
kolpavel 
VIP


З нами з: 04.05.14
Востаннє: 17.08.17
Повідомлень: 1156

2016-02-08 18:13  
cwitka, я переробляв релiз, може тому так сталося. Я думаю вся статистика вiдновиця. Бо в мене теж рейтинг - 1, а повино буди 5-7.
ssTAss 
Модератор музики


З нами з: 05.07.08
Востаннє: 17.08.17
Повідомлень: 11750

2016-02-08 19:09  
ssTAss написано:
2011 - Smooth Jazz II

ставлю золото "авансом" з надією, що знайдете і додасьте цей альбом

kolpavel 
VIP


З нами з: 04.05.14
Востаннє: 17.08.17
Повідомлень: 1156

2016-02-08 20:08  
Вже знайшов.
cwitka 
Свій


З нами з: 03.03.13
Востаннє: 16.08.17
Повідомлень: 77

2016-02-08 21:53  
kolpavel
Якщо ви переробляли реліз, то чи потрібно його перевантажувати чи ні?

kolpavel 
VIP


З нами з: 04.05.14
Востаннє: 17.08.17
Повідомлень: 1156

2016-02-08 22:03  
5 квiтня в 10:35 додав новий альбом Sax Night (2017). 
Vakula_S 
Новенький


З нами з: 16.03.10
Востаннє: 29.07.17
Повідомлень: 16

2016-02-17 19:31  
В начале 2004 года студия "Night Stage Records" в Нидерландах выпустила альбом "Downtown". Эта поистине музыкальная жемчужина была создана украинским саксофонистом Константином Кляшторным при содействии Евгения Минакова. Имя Константин Кляшторный появилось в музыкальном мире не вчера и не вдруг. Многие годы учебы предшествовали выпуску первого сольного альбома "Downtown". Причем, учеба не только как таковая в музыкальном училище имени Р.М.Глиэра в Киеве и двух консерваториях Голландии, а настоящая - 20 лет исполнительской практики и работы в сфере звукозаписи.

Первый десятилетний этап музыкального опыта Константина Кляшторного сформировался в насыщенной музыкальной среде Украины, в частности, города Киева. По окончании музыкального училища Константин входит в состав киевского популярного квартета "Джаз вуйко бенд" под управлением Петра Пашкова, вместе с которым принимает участие в многочисленных фестивалях в городах Киеве, Донецке, Львове, Одессе, Кривом Роге, а также Витебске ("Славянский базар") и Будапеште ("Jazz Rock Jamboree"). В это же время происходит активное сотрудничество музыканта с известной украинской певицей Таисией Повалий.

Период с 1994 по 2000 годы Константин проводит в Латинской Америке, где изучает латинские музыкальные стили, активно выступая на сценах Аргентины, Колумбии, Арубы, Бонайре. Участвует в фестивалях в Венесуэле, Курасао, Испании и Швейцарии ("Montreux Jazz Festival"). Входит в состав музыкальных групп известных латиноамериканских солистов, таких как Соледад Браво (Soledad Bravo), Бьеля Да Коста (Biella Da Costa), Оскар Де Леон (Oscar de Leon). Выступает на одной сцене с Эриком Мариенталем (Eric Marienthal) и Дайян Уорвик (Dione Warwick). Помимо активной исполнительской деятельности, этот творческий период Константина ознаменован записью музыки для десятков дисков, а также для трех венесуэльских телесериалов.

В 2000 году Константин решает продолжить свое академическое образование в Нидерландах, в консерваториях Роттердама и Гааги. Наряду с учебой работает на подмостках Нидерландов, Германии, Франции, Бельгии и Португалии в составе театров, биг-бэндов не только в качестве ведущего исполнителя, но и музыкального директора.

Украина влюбила его в музыку, Латинская Америка раскрасила его талант своими пестрыми красками, а Голландия свела в нем воедино Восток, Запад и центр Европы. Три совершенно различные и несомненно богатые культуры побудили Константина к созданию собственных композиций, которые и вошли в его новый альбом "Downtown", раскрывая слушателю возможности этого богатого мелодиста. Как исполнитель, саксофонист Кляшторный излучает особую энергетику. Недаром на радиостанциях в Соединенных Штатах Америки, Великобритании, Германии альбом "Downtown" был единодушно признан музыкальным сокровищем, заслуживающим почетного места в ряду с лучшими работами в стиле smooth jazz. Несмотря на данную классификацию стиля, музыка альбома больше похожа на "pop" - она приятна и доступна любому слушателю."Feeling good CD" (музыка, дающая хорошее самочувствие) - так кратко и точно характеризуют "Downtown" музыкальные критики и радиослушатели. А профессионалы и ценители музыкального искусства пророчат этому саксофонисту и композитору большое будущее, делая ставку на синтез высокого профессионализма, прекрасного вкуса и бесспорного таланта Константина Кляшторного.

lpershyi 
Попереджень: 2
Попереджень: 2 


З нами з: 04.01.11
Востаннє: 03.08.17
Повідомлень: 2743

2017-04-06 06:06  
kolpavel написано:
5 квітня о 10:35 додав новий альбом Sax Night (2017)

+1

ssTAss-e! Ще від 2016-02-17 на Толоці популяризується іноземна мова, чому?

Ваш часовий пояс: GMT + 2 Години

Нова тема   Відповісти