Маленький принц / The Little Prince (2015) 1080p 3D Ukr/Eng/Fra [Half OverUnder]

Нові коментарі

Нова тема   Відповісти
Автор Повідомлення
-VipeR- 
VIP


З нами з: 17.07.08
Востаннє: 23.08.17
Повідомлень: 289

2016-01-30 14:30  
Маленький принц / The Little Prince (2015) 1080p 3D Ukr/Eng/Fra [Half OverUnder]

Маленький принц / The Little Prince (2015) 1080p 3D Ukr/Eng/Fra [Half OverUnder]


Жанр: мультфільм, фентезі
Країна: Франція



Кінокомпанія: Onyx Films, Mikros Image, Orange Studio
Режисер: Марк Осборн
Актори: Рейчел МакАдамс, Джеймс Франко, Маріон Котійяр, Макензі Фой, Джефф Бріджес, Бенісіо Дель Торо

Сюжет:
Головна героїня мультфільму – маленька і дуже обдарована дівчинка. Увесь свій час вона присвячує навчанню. Сім'я переїжджає до нового будинку і наша героїня знайомиться з дивним дідусем, який живе по сусідству. Він виявляється льотчиком, який понад усе любить дивитися на зірки. Саме від нього дівчинка і дізнається історію Маленького принца – хлопчика, який живе один на своїй крихітній планеті.


Тривалість: 01:46:34
Якість: 1080p 3D [Half OverUnder]
Відео:
кодек:
розмір кадру: 1920 х 1080
бітрейт: 9457 кб/с
Зліва і справа обрізано по 235 пікселів, для перегляду на звичайних тв без чорних смуг

Аудіо # 1:
мова: українська
переклад: професійний дубльований
кодек: 2.0
бітрейт: 192 кб/с

Аудіо # 2:
мова: англійська
переклад: оригінал
кодек: 5.1
бітрейт: 640 кб/с

Аудіо # 3:
мова: французька
переклад: оригінал
кодек: 5.1
бітрейт: 640 кб/с

Джерело озвучення:
Info
General
Unique ID : 210289618295102441505167588928577976424 (0x9E344EAA5985367B85482D45D011B868)
Complete name : D:\3D\The Little Prince (2015) 1080p 3D HalfOverUnder [Hurtom] .
Format :
Format version : Version 4 / Version 2
File size : 8.30 GiB
Duration : 1h 46mn
Overall bit rate : 11.2 Mbps
Movie name : The_Little_Prince_3D_Crop_HO/U
Encoded date : UTC 2016-01-30 10:41:51
Writing application : mkvmerge v8.8.0 ('Wind at my back') 64bit
Writing library : libebml v1.3.3 + libmatroska v1.4.4
DURATION : 01:46:34.400000000
NUMBER_OF_FRAMES : 199825
NUMBER_OF_BYTES : 511552000
_STATISTICS_WRITING_APP : mkvmerge v8.8.0 ('Wind at my back') 64bit
_STATISTICS_WRITING_DATE_UTC : 2016-01-30 10:41:51
_STATISTICS_TAGS : BPS DURATION NUMBER_OF_FRAMES NUMBER_OF_BYTES
Attachment : Yes

Video
ID : 1
Format : AVC
Format/Info : Advanced Video Codec
Format profile : [email protected]
Format settings, CABAC : Yes
Format settings, ReFrames : 4 frames
Codec ID : V_MPEG4/ISO/AVC
Duration : 1h 46mn
Bit rate : 9 457 Kbps
Width : 1 920 pixels
Height : 1 080 pixels
Display aspect ratio : 16:9
Frame rate mode : Constant
Frame rate : 23.976 fps
Color space : YUV
Chroma subsampling : 4:2:0
Bit depth : 8 bits
Scan type : Progressive
Bits/(Pixel*Frame) : 0.190
Stream size : 7.04 GiB (85%)
Title : rip by I/N
Writing library : core 128 r2216M 198a7ea
Encoding settings : cabac=1 / ref=4 / deblock=1:-3:-3 / analyse=0x3:0x133 / me=umh / subme=10 / psy=1 / psy_rd=1.00:0.15 / mixed_ref=1 / me_range=48 / chroma_me=1 / trellis=2 / 8x8dct=1 / cqm=0 / deadzone=21,11 / fast_pskip=1 / chroma_qp_offset=-3 / threads=8 / lookahead_threads=1 / sliced_threads=0 / nr=0 / decimate=1 / interlaced=0 / bluray_compat=0 / constrained_intra=0 / bframes=8 / b_pyramid=2 / b_adapt=2 / b_bias=0 / direct=3 / weightb=1 / open_gop=0 / weightp=2 / keyint=230 / keyint_min=23 / scenecut=40 / intra_refresh=0 / rc_lookahead=60 / rc=crf / mbtree=1 / crf=15.0 / qcomp=0.60 / qpmin=10 / qpmax=69 / qpstep=4 / ip_ratio=1.40 / aq=1:0.90
Default : Yes
Forced : No
DURATION : 01:46:34.221000000
NUMBER_OF_FRAMES : 153308
NUMBER_OF_BYTES : 7734536520
_STATISTICS_WRITING_APP : mkvmerge v8.8.0 ('Wind at my back') 64bit
_STATISTICS_WRITING_DATE_UTC : 2016-01-30 10:41:51
_STATISTICS_TAGS : BPS DURATION NUMBER_OF_FRAMES NUMBER_OF_BYTES

Audio #1
ID : 2
Format : AC-3
Format/Info : Audio Coding 3
Mode extension : CM (complete main)
Format settings, Endianness : Big
Codec ID : A_AC3
Duration : 1h 46mn
Bit rate mode : Constant
Bit rate : 192 Kbps
Channel count : 2 channels
Channel positions : Front: L R
Sampling rate : 48.0 KHz
Bit depth : 16 bits
Compression mode : Lossy
Stream size : 146 MiB (2%)
Language : Ukrainian
Default : Yes
Forced : No

Audio #2
ID : 3
Format : AC-3
Format/Info : Audio Coding 3
Mode extension : CM (complete main)
Format settings, Endianness : Big
Codec ID : A_AC3
Duration : 1h 46mn
Bit rate mode : Constant
Bit rate : 640 Kbps
Channel count : 6 channels
Channel positions : Front: L C R, Side: L R, LFE
Sampling rate : 48.0 KHz
Bit depth : 16 bits
Compression mode : Lossy
Stream size : 488 MiB (6%)
Language : English
Default : No
Forced : No

Audio #3
ID : 4
Format : AC-3
Format/Info : Audio Coding 3
Mode extension : CM (complete main)
Format settings, Endianness : Big
Codec ID : A_AC3
Duration : 1h 46mn
Bit rate mode : Constant
Bit rate : 640 Kbps
Channel count : 6 channels
Channel positions : Front: L C R, Side: L R, LFE
Sampling rate : 48.0 KHz
Bit depth : 16 bits
Compression mode : Lossy
Stream size : 488 MiB (6%)
Title : Original
Language : French
Default : No
Forced : No

Menu
00:00:00.000 : en:00:00:00.000
00:06:11.329 : en:00:06:11.329
00:16:06.424 : en:00:16:06.424
00:22:35.312 : en:00:22:35.312
00:32:19.229 : en:00:32:19.229
00:38:04.824 : en:00:38:04.824
00:43:55.132 : en:00:43:55.132
00:49:36.307 : en:00:49:36.307
00:57:30.322 : en:00:57:30.322
01:08:32.692 : en:01:08:32.692
01:14:05.816 : en:01:14:05.816
01:20:31.201 : en:01:20:31.201
01:27:21.403 : en:01:27:21.403
01:39:05.481 : en:01:39:05.481
01:46:34.138 : en:01:46:34.138
Скріншоти
Джерело: &
Особиста оцінка: 8 - мені сподобалося

Мультфільм для перегляду тільки на 3D обладнанні!

За українську доріжку подяка пану Vasua95. За синхронізацію подяка пану Hanway.


 Трекер:    Зареєстрований   

Завантажити / скачати мультфільм українською



відео для новачків



 Зареєстрований:   2016-01-30 14:30
 Розмір:   8.3 GB 
 Оцінка мультфільму:   9.8/10 (Голосів: 9)
   
Інші релізи
   Маленький принц / The Little Prince (2015) 1080p Ukr/Eng | Sub Eng igor911  10 / 0   6.71 GB   2017-01-21 11:32 
   Маленький принц / The Little Prince (2015) 720p Ukr/Eng | Sub Eng 11FrYkT  35 / 2   3.52 GB   2016-01-30 22:26 
   Маленький принц / The Little Prince (2015) 11FrYkT  47 / 0   1.45 GB   2016-01-30 22:08 
   Маленький принц / The Little Prince (2015) AVC AngryBirdsUA  40 / 0   1.66 GB   2016-01-30 11:07 
hunteroma 
Новенький


З нами з: 12.01.10
Востаннє: 30.01.16
Повідомлень: 1

2016-01-30 21:48  
Дякую!
Boyavor 
Свій


З нами з: 03.10.12
Востаннє: 03.08.17
Повідомлень: 67

2016-02-18 03:04  
а, то тільки 3d?! Хтів чимпобільше, а вийшло як завше=)) Гоу на інший реліз!
Ваш часовий пояс: GMT + 2 Години

Нова тема   Відповісти