Пінгвінчик Пороро: Великі перегони / Pororo, the Racing Adventure (2013) 1080p 3D [Half SideBySide] Ukr/Eng

Нові коментарі

Нова тема   Відповісти
Автор Повідомлення
-VipeR- 
VIP


З нами з: 17.07.08
Востаннє: 16.08.17
Повідомлень: 289

2016-01-30 12:13  
Пінгвінчик Пороро: Великі перегони / Pororo, the Racing Adventure (2013) 1080p 3D [Half SideBySide] Ukr/Eng

Пінгвінчик Пороро: Великі перегони / Pororo, the Racing Adventure (2013) 1080p 3D [Half SideBySide] Ukr/Eng


Жанр: анімація, сімейний
Країна: Китай, Південна Корея



Кінокомпанія: Simka Entertainment, BTV Kaku Children's Satellite TV, China ACG Group Co.
Режисер: Юн Кун Пак
Актори: Кріс Джай Алекс, Ентоні Андерсон, Дрейк Белл

Сюжет:
У глухому селі живе пінгвінчик Пороро, який мріє вирости і стати справжнім гонщиком. Одного разу в їхніх краях здійснює вимушену посадку вантажний літак з черепахами, що перевозять сани для зимових перегонів. Помилково вирішивши, що черепахи і є ті самі гонщики, пінгвінчик вмовляє їх дати йому кілька уроків, а потім вирушає на змагання. Але прибувши на місце, він розуміє, що виграти буде не так просто, адже його суперники - багаторазовий чемпіон з перегонів Білий Тигр і, нечисті на лапу, ведмеді, які вічно вигадують різні пастки для своїх суперників.


Тривалість: 01:16:56
Якість: 1080p 3D Half SideBySide
Відео:
кодек:
розмір кадру: 1920 х 1080
бітрейт: 8 546 кб/с

Аудіо # 1:
мова: українська
переклад: професійний дубльований
кодек: 2.0
бітрейт: 192 кб/с

Аудіо # 2:
мова: англійська
переклад: оригінал
кодек: 5.1
бітрейт: 384 кб/с

Джерело озвучення:
Info
General
Unique ID : 249342845281743568855639433860406741455 (0xBB95AF6A3ABB73A1A1BFA7697BE289CF)
Complete name : D:\3D\Pororo, the Racing Adventure (2013) 1080p 3D [Ukr.Eng] [Hurtom].
Format :
Format version : Version 4 / Version 2
File size : 5.00 GiB
Duration : 1h 16mn
Overall bit rate : 9 307 Kbps
Movie name : Pororo.The.Racing.Adventure.3D.2013.H-SBS.[torrent3d.ru]
Encoded date : UTC 2016-01-09 14:15:27
Writing application : mkvmerge v6.6.0 ('The Edge Of The In Between') built on Dec 18 2013 23:19:42
Writing library : libebml v1.3.0 + libmatroska v1.4.1

Video
ID : 1
Format : AVC
Format/Info : Advanced Video Codec
Format profile : [email protected]
Format settings, CABAC : Yes
Format settings, ReFrames : 2 frames
Codec ID : V_MPEG4/ISO/AVC
Duration : 1h 16mn
Bit rate : 8 546 Kbps
Width : 1 920 pixels
Height : 1 080 pixels
Display aspect ratio : 16:9
Frame rate mode : Constant
Frame rate : 23.976 fps
Color space : YUV
Chroma subsampling : 4:2:0
Bit depth : 8 bits
Scan type : Progressive
Bits/(Pixel*Frame) : 0.172
Stream size : 4.59 GiB (92%)
Writing library : core
Language : English
Default : No
Forced : No
Color primaries : BT.709
Transfer characteristics : BT.709
Matrix coefficients : BT.709

Audio #1
ID : 2
Format : AC-3
Format/Info : Audio Coding 3
Mode extension : CM (complete main)
Format settings, Endianness : Big
Codec ID : A_AC3
Duration : 1h 16mn
Bit rate mode : Constant
Bit rate : 192 Kbps
Channel count : 2 channels
Channel positions : Front: L R
Sampling rate : 48.0 KHz
Bit depth : 16 bits
Compression mode : Lossy
Stream size : 106 MiB (2%)
Default : Yes
Forced : No

Audio #2
ID : 3
Format : AC-3
Format/Info : Audio Coding 3
Mode extension : CM (complete main)
Format settings, Endianness : Big
Codec ID : A_AC3
Duration : 1h 16mn
Bit rate mode : Constant
Bit rate : 384 Kbps
Channel count : 6 channels
Channel positions : Front: L C R, Side: L R, LFE
Sampling rate : 48.0 KHz
Bit depth : 16 bits
Compression mode : Lossy
Stream size : 211 MiB (4%)
Language : English
Default : No
Forced : No

Menu
00:00:00.000 : en:00:00:00.000
00:05:00.000 : en:00:05:00.000
00:10:00.000 : en:00:10:00.000
00:15:00.000 : en:00:15:00.000
00:20:00.000 : en:00:20:00.000
00:25:00.000 : en:00:25:00.000
00:30:00.000 : en:00:30:00.000
00:35:00.000 : en:00:35:00.000
00:40:00.000 : en:00:40:00.000
00:45:00.000 : en:00:45:00.000
00:50:00.000 : en:00:50:00.000
00:55:00.000 : en:00:55:00.000
01:00:00.000 : en:01:00:00.000
01:05:00.000 : en:01:05:00.000
01:10:00.000 : en:01:10:00.000
01:15:00.000 : en:01:15:00.000
Скріншоти
Джерело: &
Особиста оцінка: 0 - не дивився

За українську доріжку подяка пану Vasua95


 Трекер:    Зареєстрований   

Завантажити / скачати мультфільм українською



відео для новачків



 Зареєстрований:   2016-01-30 12:13
 Розмір:   5 GB 
 Оцінка мультфільму:   10/10 (Голосів: 3)
   
Ваш часовий пояс: GMT + 2 Години

Нова тема   Відповісти