Суперкоманда / Metegol (2013) 720p Ukr/Spa | Sub Spa

Нові коментарі

Нова тема   Відповісти
Автор Повідомлення
Anonymous 







2016-01-29 23:15  
Суперкоманда / Metegol (2013) 720p Ukr/Spa | Sub Spa



Жанр: анімація, пригодницький, сімейний, спорт
Країна: Іспанія, Аргентина



Кінокомпанія: 100 Bares, 369 Productions, Antena 3 Films, Catmandu Branded Entertainment, Instituto Nacional de Cine y Artes Audiovisuales (INCAA), Instituto de Crédito Oficial (ICO), Instituto de la Cinematografía y de las Artes Audiovisuales (ICAA), JEMPSA, Ministerio de Cultura, Plural - Jempsa, Prana Animation Studios, Televisión Federal (Telefe)
Режисер: Хуан Хосе Кампанелла / Juan José Campanella
Ролі озвучили (оригінал): Габріель Альмірон / Gabriel Almirón, Федеріко Чічері / Federico Cecere, Есек'єль Сіполс / Ezequiel Cipols, Лучана Фалькон / Luciana Falcón, Гораціо Фонтова / Horacio Fontova, Фабіан Джіанола / Fabián Gianola, Роберто Кім / Roberto Kim, Лусія Мас'єль / Lucía Maciel, Девід Масажник / David Masajnik, Хуан Хосе Кампанелла / Juan José Campanella, Аксель Кушевацький / Axel Kuschevatzky та інші

Сюжет:
Щоб врятувати рідне місто від знесення і не втратити обличчя в очах коханої, Амадео змушений зустрітися зі своїм заклятим ворогом Ейсом на футбольному полі. Але як перемогти найкращу в світі футбольну команду, якщо ти вмієш грати лише в настільний футбол? Звичайно ж за допомогою суперкоманди маленьких гравців, що ожили задля перемоги!


Рейтинг MPAA: PG - рекомендується присутність батьків
Вікова категорія: 6+

Тривалість: 01:46:38
Якість: 720p
Відео:
кодек:
розмір кадру: 1280 х 534
бітрейт: 5563 кбіт/с [crf=16]

Аудіо # 1:
мова: українська
переклад: професійний дубльований - ААА-sound
кодек: 2.0
бітрейт: 192 кбіт/с
Інформація про озвучення
Переклад: Ірина Грей
Режисер: Олександр Єфімов
Ролі озвучили: Андрій Альохін, Юлія Перенчук, Андрій Федінчик, Ярослав Чорненький, Юрій Ребрик, Михайло Жонін, Дмитро Завадський, Дмитро Нежевський, Анатолій Зіновенко, Олександр Єфімов та інші

Дубльовано студією ААА-sound у 2015 році на замовлення компанії "Вольга-Україна"
Аудіо # 2:
мова: іспанська
переклад: оригінал
кодек: 5.1
бітрейт: 640 кбіт/с

Субтитри:
мова: іспанська
тип: програмні (м'які)
формат: *.srt
Info
Код:
General
Unique ID                   : 226658506236604724224386255115668977050 (0xAA84D7267E5CF074A559F76B8220759A)
Complete name               : Metegol (2013) [Ukr,Spa sub.Spa] 720p [Hurtom].
Format                      :
Format version              : Version 4 / Version 2
File size                   : 4.86 GiB
Duration                    : 1h 46mn
Overall bit rate            : 6 525 Kbps
Movie name                  : Суперкоманда / Metegol (2013) [Ukr,Spa sub.Spa] 720p [Hurtom-igor911]
Encoded date                : UTC 2016-01-29 17:50:40
Writing application         : mkvmerge v8.8.0 ('Wind at my back') 64bit
Writing library             : libebml v1.3.3 + libmatroska v1.4.4
Attachements                : cover.jpg
DURATION                    : 01:46:38.304000000
NUMBER_OF_FRAMES            : 199947
NUMBER_OF_BYTES             : 153559296
_STATISTICS_WRITING_APP     : mkvmerge v8.8.0 ('Wind at my back') 64bit
_STATISTICS_WRITING_DATE_UT : 2016-01-29 17:50:40
_STATISTICS_TAGS            : BPS DURATION NUMBER_OF_FRAMES NUMBER_OF_BYTES

Video
ID                          : 1
Format                      : AVC
Format/Info                 : Advanced Video Codec
Format profile              : [email protected]
Format settings, CABAC      : Yes
Format settings, ReFrames   : 12 frames
Codec ID                    : V_MPEG4/ISO/AVC
Duration                    : 1h 46mn
Bit rate                    : 5 563 Kbps
Width                       : 1 280 pixels
Height                      : 534 pixels
Display aspect ratio        : 2.40:1
Frame rate mode             : Constant
Frame rate                  : 23.976 fps
Color space                 : YUV
Chroma subsampling          : 4:2:0
Bit depth                   : 8 bits
Scan type                   : Progressive
Bits/(Pixel*Frame)          : 0.339
Stream size                 : 4.14 GiB (85%)
Title                       : Суперкоманда / Metegol (2013) 720p
Writing library             : core 142 r2479kMod dd79a61
Encoding settings           : cabac=1 / ref=12 / deblock=1:-3:-3 / analyse=0x3:0x113 / me=umh / subme=11 / psy=1 / fade_compensate=0.00 / psy_rd=1.05:0.00 / mixed_ref=1 / me_range=32 / chroma_me=1 / trellis=2 / 8x8dct=1 / cqm=0 / deadzone=21,11 / fast_pskip=0 / chroma_qp_offset=-2 / threads=12 / lookahead_threads=2 / sliced_threads=0 / nr=0 / decimate=0 / interlaced=0 / bluray_compat=0 / constrained_intra=0 / fgo=0 / bframes=8 / b_pyramid=2 / b_adapt=2 / b_bias=0 / direct=3 / weightb=1 / open_gop=0 / weightp=2 / keyint=250 / keyint_min=23 / scenecut=40 / intra_refresh=0 / rc_lookahead=40 / rc=crf / mbtree=0 / crf=16.0000 / qcomp=0.80 / qpmin=0 / qpmax=69 / qpstep=4 / vbv_maxrate=50000 / vbv_bufsize=62500 / crf_max=0.0 / nal_hrd=none / filler=0 / ip_ratio=1.20 / pb_ratio=1.10 / aq=1:1.00
Language                    : Spanish
Default                     : Yes
Forced                      : No
DURATION                    : 01:46:38.315000000
NUMBER_OF_FRAMES            : 153406
NUMBER_OF_BYTES             : 4550706845
_STATISTICS_WRITING_APP     : mkvmerge v8.8.0 ('Wind at my back') 64bit
_STATISTICS_WRITING_DATE_UT : 2016-01-29 17:50:40
_STATISTICS_TAGS            : BPS DURATION NUMBER_OF_FRAMES NUMBER_OF_BYTES

Audio #1
ID                          : 2
Format                      : AC-3
Format/Info                 : Audio Coding 3
Mode extension              : CM (complete main)
Format settings, Endianness : Big
Codec ID                    : A_AC3
Duration                    : 1h 46mn
Bit rate mode               : Constant
Bit rate                    : 192 Kbps
Channel(s)                  : 2 channels
Channel positions           : Front: L R
Sampling rate               : 48.0 KHz
Compression mode            : Lossy
Stream size                 : 146 MiB (3%)
Title                       : Dub [AAA-sound] 2.0 192 kbps [Hurtom-Vasua95,Hanway]
Language                    : Ukrainian
Default                     : Yes
Forced                      : No

Audio #2
ID                          : 3
Format                      : AC-3
Format/Info                 : Audio Coding 3
Mode extension              : CM (complete main)
Format settings, Endianness : Big
Codec ID                    : A_AC3
Duration                    : 1h 46mn
Bit rate mode               : Constant
Bit rate                    : 640 Kbps
Channel(s)                  : 6 channels
Channel positions           : Front: L C R, Side: L R, LFE
Sampling rate               : 48.0 KHz
Compression mode            : Lossy
Stream size                 : 488 MiB (10%)
Title                       : Original 5.1 640 kbps
Language                    : Spanish
Default                     : No
Forced                      : No

Text
ID                          : 4
Format                      : UTF-8
Codec ID                    : S_TEXT/UTF8
Codec ID/Info               : UTF-8 Plain Text
Language                    : Spanish
Default                     : No
Forced                      : No


Джерела та подяки: &
українська доріжка - Vasua95, Hanway (зведення) (обоє - Гуртом).


ЗАЛИШАЙТЕСЬ ЯКОМОГА ДОВШЕ НА РОЗДАЧІ!

СКАЧАВ САМ - ДАЙ СКАЧАТИ ІНШИМ


 Трекер:    Зареєстрований   

Завантажити / скачати мультфільм українською



відео для новачків



 Зареєстрований:   2016-01-29 23:15
 Розмір:   4.86 GB 
 Оцінка мультфільму:   4.9/10 (Голосів: 18)
   
Інші релізи
   Суперкоманда / Metegol (2013) 1080p 3D Ukr/Spa [Half OverUnder] -VipeR-  2 / 0   6.53 GB   2016-01-29 14:12 
   Суперкоманда / Metegol (2013) AngryBirdsUA  15 / 0   1.45 GB   2016-01-25 20:31 
Ваш часовий пояс: GMT + 2 Години

Нова тема   Відповісти