Суперкоманда / Metegol (2013) 1080p 3D Ukr/Spa [Half OverUnder]

Нові коментарі

Нова тема   Відповісти
Автор Повідомлення
-VipeR- 
VIP


З нами з: 17.07.08
Востаннє: 21.08.17
Повідомлень: 289

2016-01-29 14:11  
Суперкоманда / Metegol (2013) 1080p 3D Ukr/Spa [Half OverUnder]



Жанр: анімація, пригодницький, сімейний, спорт
Країна: Іспанія, Аргентина



Кінокомпанія: 100 Bares, 369 Productions, Antena 3 Films
Режисер: Хуан Хосе Кампанелла
Актори: Руперт Грінт, Ентоні Хед, Пітер Серафінович, Роб Брайдон, Дарен Бойд, Ендрю Нотт

Сюжет:
Щоб врятувати рідне місто від знесення і не втратити обличчя в очах коханої, Амадео змушений битися зі своїм заклятим ворогом Ейсом на спортивному полі. Але як перемогти кращу футбольну команду в світі, якщо ти вмієш грати лише в настільний футбол? Звичайно ж з великою допомогою суперкоманди маленьких гравців, що ожили задля перемоги!


Тривалість: 01:46:38
Якість: 1080p 3D [Half OverUnder] Ash61
Відео:
кодек:
розмір кадру: 1920 х 1080
бітрейт: 7 633 кб/с

Аудіо # 1:
мова: українська
переклад: професійний дубльований
кодек: 2.0
бітрейт: 192 кб/с

Аудіо # 2:
мова: іспанська
переклад: оригінал
кодек: 5.1
бітрейт: 768 кб/с
Info
General
Unique ID : 236874854459344776527579018720684474380 (0xB2347001CE6A1763A59A5CEFA88F000C)
Complete name : D:\3D\Metegol (2013) 3D 1080p Ukr Spa [Hurtom].
Format :
Format version : Version 4 / Version 2
File size : 6.53 GiB
Duration : 1h 46mn
Overall bit rate : 8 768 Kbps
Movie name : Большая игра / Волшебный футбол / Настольный футбол / Metegol (2013) 3D
Encoded date : UTC 2016-01-26 09:26:21
Writing application : mkvmerge v8.8.0 ('Wind at my back') 64bit
Writing library : libebml v1.3.3 + libmatroska v1.4.4
DURATION : 01:46:38.304000000
NUMBER_OF_FRAMES : 199947
NUMBER_OF_BYTES : 153559296
_STATISTICS_WRITING_APP : mkvmerge v8.8.0 ('Wind at my back') 64bit
_STATISTICS_WRITING_DATE_UTC : 2016-01-26 09:26:21
_STATISTICS_TAGS : BPS DURATION NUMBER_OF_FRAMES NUMBER_OF_BYTES

Video
ID : 1
Format : AVC
Format/Info : Advanced Video Codec
Format profile : High@L4.1
Format settings, CABAC : Yes
Format settings, ReFrames : 4 frames
Codec ID : V_MPEG4/ISO/AVC
Duration : 1h 46mn
Bit rate : 7 633 Kbps
Width : 1 920 pixels
Height : 1 080 pixels
Display aspect ratio : 16:9
Frame rate mode : Constant
Frame rate : 23.976 fps
Color space : YUV
Chroma subsampling : 4:2:0
Bit depth : 8 bits
Scan type : Progressive
Bits/(Pixel*Frame) : 0.154
Stream size : 5.69 GiB (87%)
Title : by Ash61
Writing library : core 138 r2358 9e941d1
Encoding settings : cabac=1 / ref=4 / deblock=1:-3:-3 / analyse=0x3:0x113 / me=umh / subme=10 / psy=1 / psy_rd=1.00:0.15 / mixed_ref=1 / me_range=32 / chroma_me=1 / trellis=2 / 8x8dct=1 / cqm=0 / deadzone=21,11 / fast_pskip=1 / chroma_qp_offset=-3 / threads=12 / lookahead_threads=2 / sliced_threads=0 / nr=0 / decimate=1 / interlaced=0 / bluray_compat=0 / constrained_intra=0 / bframes=9 / b_pyramid=2 / b_adapt=2 / b_bias=0 / direct=3 / weightb=1 / open_gop=0 / weightp=2 / keyint=250 / keyint_min=23 / scenecut=40 / intra_refresh=0 / rc_lookahead=60 / rc=crf / mbtree=1 / crf=17.0 / qcomp=0.70 / qpmin=0 / qpmax=69 / qpstep=4 / vbv_maxrate=40000 / vbv_bufsize=30000 / crf_max=0.0 / nal_hrd=none / frame-packing=4 / ip_ratio=1.40 / aq=1:0.70
Language : Spanish
Default : Yes
Forced : No

Audio #1
ID : 2
Format : AC-3
Format/Info : Audio Coding 3
Mode extension : CM (complete main)
Format settings, Endianness : Big
Codec ID : A_AC3
Duration : 1h 46mn
Bit rate mode : Constant
Bit rate : 192 Kbps
Channel count : 2 channels
Channel positions : Front: L R
Sampling rate : 48.0 KHz
Bit depth : 16 bits
Compression mode : Lossy
Stream size : 146 MiB (2%)
Language : Ukrainian
Default : Yes
Forced : No

Audio #2
ID : 3
Format :
Format/Info : Digital Theater Systems
Mode : 16
Format settings, Endianness : Big
Codec ID : A_DTS
Duration : 1h 46mn
Bit rate mode : Constant
Bit rate : 768 Kbps
Channel count : 6 channels
Channel positions : Front: L C R, Side: L R, LFE
Sampling rate : 48.0 KHz
Bit depth : 24 bits
Compression mode : Lossy
Stream size : 586 MiB (9%)
Language : Spanish
Default : No
Forced : No

Menu
00:00:00.000 : :1
00:04:15.711 : :2
00:13:07.745 : :3
00:22:28.805 : :4
00:27:48.083 : :5
00:34:20.806 : :6
00:39:25.445 : :7
00:44:32.710 : :8
00:50:44.331 : :9
00:55:13.351 : :10
00:59:43.579 : :11
01:05:22.001 : :12
01:07:09.858 : :13
01:10:19.631 : :14
01:13:17.309 : :15
01:19:24.591 : :16
01:24:44.496 : :17
01:28:25.716 : :18
01:34:16.609 : :19
01:36:38.417 : :20
Скріншоти
Джерело: &
Особиста оцінка: 0 - не дивився

За українська доріжку подяка пану Vasua95 та пану Hanway


 Трекер:    Зареєстрований   

Завантажити / скачати мультфільм українською



відео для новачків



 Зареєстрований:   2016-01-29 14:12
 Розмір:   6.53 GB 
 Оцінка мультфільму:   10/10 (Голосів: 2)
   
Інші релізи
   Суперкоманда / Metegol (2013) 720p Ukr/Spa | Sub Spa igor911  8 / 0   4.86 GB   2016-01-29 23:15 
   Суперкоманда / Metegol (2013) AngryBirdsUA  10 / 0   1.45 GB   2016-01-25 20:31 
Ваш часовий пояс: GMT + 2 Години

Нова тема   Відповісти