Переполох у джунглях / Jungle Shuffle (2014) 720p Ukr/Eng

Нові коментарі

Нова тема   Відповісти
Автор Повідомлення
Anonymous 







2016-01-24 12:18  
Переполох у джунглях / Jungle Shuffle (2014) 720p Ukr/Eng



Жанр: анімація, пригодницький
Країна: Південна Корея, Мексика



Кінокомпанія: WonderWorld Studios, Avikoo Studios, Animation Picture Company, CJ Entertainment, Emotion Collective Design, Westbridge University - WEFIS, Woori Investment Co.
Режисер: Тадонг Пак / Taedong Park, Маурісіо Де ла Орта / Mauricio De la Orta
Ролі озвучили: Дрейк Белл, Джессіка ДиЧікко, Бріанн Брозі, Роб Шнайдер / Rob Schneider, Майкл МакКоннохі, Кріс Гарднер та інші

Сюжет:
Ману — коаті, гарненький молодий звір рідкісного виду єнотів. Він не любить бити байдики і мріє допомагати всім звірям у джунглях. Та через свою невгамовну енергію він постійно потрапляє у різні неприємні ситуації. Одного разу він випадково ламає величезну статую, яку зводило все плем'я, за що король виганяє його, незважаючи на вмовляння своєї доньки Саші. Але, коли в плем'я приходить біда і браконьєри викрадають Сашу, навкруги не знаходиться героя, готового вирушити услід за людьми. Тільки один Ману готовий ризикнути всім і врятувати доньку короля.


Вікова категорія: 6+

Тривалість: 01:21:34
Якість: 720p
Відео:
кодек:
розмір кадру: 1280 х 720
бітрейт: 4242 кбіт/с

Аудіо # 1:
мова: українська
переклад: професійний дубльований
кодек: 2.0
бітрейт: 192 кбіт/с

Аудіо # 2:
мова: англійська
переклад: оригінал
кодек: 5.1
бітрейт: 1509 кбіт/с
Info
Код:
General
Unique ID                   : 198218840984115296138991082495233255866 (0x951F8F654A17AD7CB238A049FF6469BA)
Complete name               : Jungle Shuffle (2014) [Ukr,Eng] 720p [Hurtom].
Format                      :
Format version              : Version 4 / Version 2
File size                   : 3.39 GiB
Duration                    : 1h 21mn
Overall bit rate            : 5 945 Kbps
Movie name                  : Переполох у джунглях / Jungle Shuffle (2014) [Ukr,Eng] 720p [Hurtom-igor911]
Encoded date                : UTC 2016-01-23 20:50:00
Writing application         : mkvmerge v8.8.0 ('Wind at my back') 64bit
Writing library             : libebml v1.3.3 + libmatroska v1.4.4
Attachements                : cover.jpg

Video
ID                          : 1
Format                      : AVC
Format/Info                 : Advanced Video Codec
Format profile              : [email protected]
Format settings, CABAC      : Yes
Format settings, ReFrames   : 5 frames
Codec ID                    : V_MPEG4/ISO/AVC
Duration                    : 1h 21mn
Bit rate                    : 4 242 Kbps
Width                       : 1 280 pixels
Height                      : 720 pixels
Display aspect ratio        : 16:9
Frame rate mode             : Constant
Frame rate                  : 23.976 (24000/1001) fps
Original frame rate         : 23.976 (23976/1000) fps
Color space                 : YUV
Chroma subsampling          : 4:2:0
Bit depth                   : 8 bits
Scan type                   : Progressive
Bits/(Pixel*Frame)          : 0.192
Stream size                 : 2.42 GiB (71%)
Title                       : Переполох у джунглях / Jungle Shuffle (2014) 720p
Writing library             : core 142 r2491 24e4fed
Encoding settings           : cabac=1 / ref=5 / deblock=1:0:0 / analyse=0x3:0x113 / me=umh / subme=7 / psy=1 / psy_rd=1.00:0.00 / mixed_ref=1 / me_range=16 / chroma_me=1 / trellis=1 / 8x8dct=1 / cqm=0 / deadzone=21,11 / fast_pskip=0 / chroma_qp_offset=-2 / threads=12 / lookahead_threads=2 / sliced_threads=0 / nr=0 / decimate=1 / interlaced=0 / bluray_compat=0 / constrained_intra=0 / bframes=3 / b_pyramid=2 / b_adapt=2 / b_bias=0 / direct=3 / weightb=1 / open_gop=0 / weightp=2 / keyint=250 / keyint_min=23 / scenecut=40 / intra_refresh=0 / rc_lookahead=50 / rc=2pass / mbtree=1 / bitrate=4242 / ratetol=1.0 / qcomp=0.60 / qpmin=0 / qpmax=69 / qpstep=4 / cplxblur=20.0 / qblur=0.5 / ip_ratio=1.40 / aq=1:1.00
Language                    : English
Default                     : Yes
Forced                      : No

Audio #1
ID                          : 2
Format                      : AC-3
Format/Info                 : Audio Coding 3
Mode extension              : CM (complete main)
Format settings, Endianness : Big
Codec ID                    : A_AC3
Duration                    : 1h 21mn
Bit rate mode               : Constant
Bit rate                    : 192 Kbps
Channel(s)                  : 2 channels
Channel positions           : Front: L R
Sampling rate               : 48.0 KHz
Frame rate                  : 31.250 fps (1536 spf)
Compression mode            : Lossy
Stream size                 : 112 MiB (3%)
Title                       : Dub [Megogo] 2.0 192 kbps [Hurtom-Vasua95]
Language                    : Ukrainian
Default                     : Yes
Forced                      : No

Audio #2
ID                          : 3
Format                      :
Format/Info                 : Digital Theater Systems
Mode                        : 16
Format settings, Endianness : Big
Codec ID                    : A_DTS
Duration                    : 1h 21mn
Bit rate mode               : Constant
Bit rate                    : 1 509 Kbps
Channel(s)                  : 6 channels
Channel positions           : Front: L C R, Side: L R, LFE
Sampling rate               : 48.0 KHz
Frame rate                  : 93.750 fps (512 spf)
Bit depth                   : 24 bits
Compression mode            : Lossy
Stream size                 : 880 MiB (25%)
Title                       : Original 5.1 1509 kbps
Language                    : English
Default                     : No
Forced                      : No




Джерела та подяки: &
українська доріжка - Vasua95

ЗАЛИШАЙТЕСЬ ЯКОМОГА ДОВШЕ НА РОЗДАЧІ!

СКАЧАВ САМ - ДАЙ СКАЧАТИ ІНШИМ


 Трекер:    Зареєстрований   

Завантажити / скачати мультфільм українською



відео для новачків



 Зареєстрований:   2016-01-24 12:18
 Розмір:   3.39 GB 
 Оцінка мультфільму:   3.8/10 (Голосів: 17)
   
Інші релізи
strannikosho_trek 
Новенький


З нами з: 29.05.14
Востаннє: 19.08.17
Повідомлень: 15

2016-01-25 22:42  
Не сподобався ні мені, ні дітям (4 та 9 років). Якість на рівні дешевих серіалів. 3/10
Ваш часовий пояс: GMT + 2 Години

Нова тема   Відповісти