Переполох у джунглях / Jungle Shuffle (2014) 1080 3D Ukr/Eng [Half OverUnder]

Нові коментарі

Нова тема   Відповісти
Автор Повідомлення
-VipeR- 
VIP


З нами з: 17.07.08
Востаннє: 19.08.17
Повідомлень: 289

2016-01-24 11:51  
Переполох у джунглях / Jungle Shuffle (2014) 1080 3D Ukr/Eng [Half OverUnder]

Переполох у джунглях / Jungle Shuffle (2014) 1080 3D Ukr/Eng [Half OverUnder]


Жанр: анімація, пригодницький
Країна: Південна Корея, Мексика



Кінокомпанія: WonderWorld Studios, Avikoo Studios, Animation Picture Company
Режисер: Тадонг Пак, Маурісіо Де ла Орта
Актори: Дрейк Белл, Джессіка ДиЧікко, Бріанн Брозі, Роб Шнайдер, Майкл МакКоннохі, Кріс Гарднер

Сюжет:
Ману — коаті, гарненький молодий звір рідкісного виду єнотів. Він не любить бити байдики і мріє допомагати всім звірам в джунглях. Та через свою невгамовну енергію він постійно потрапляє в різні безглузді ситуації. Одного разу він випадково ламає величезну статую, яку зводило все плем'я, за що король виганяє його, незважаючи на вмовляння своєї доньки Саші. Але, коли в плем'я приходить біда і браконьєри викрадають Сашу, навкруги не знаходиться героя, готового вирушити услід за людьми. Тільки один Ману готовий ризикнути всім і врятувати доньку короля.


Тривалість: 01:21:33
Якість: 1080p 3D [Half OverUnder]
Відео:
кодек:
розмір кадру: 1920 х 1080
бітрейт: 13.0 Мбіт/с

Аудіо # 1:
мова: українська
переклад: професійний дубльований
кодек: 2.0
бітрейт: 192 кб/с

Аудіо # 2:
мова: англійська
переклад: оригінал
кодек: 5.1
бітрейт: 640 кб/с
Info
General
Unique ID : 221849296399929039089729842176537654777 (0xA6E69ECC7DB77FF78721C648AFC3F5F9)
Complete name : D:\3D\Jungle Shuffle (2014) 1080p 3D HalfOverUnder [Hurtom].
Format :
Format version : Version 4 / Version 2
File size : 8.06 GiB
Duration : 1h 21mn
Overall bit rate : 14.1 Mbps
Movie name : JUNGLE_SHUFFLE_3D_Half_O/U
Encoded date : UTC 2016-01-23 14:44:17
Writing application : mkvmerge v8.8.0 ('Wind at my back') 64bit
Writing library : libebml v1.3.3 + libmatroska v1.4.4
DURATION : 01:21:33.920000000
NUMBER_OF_FRAMES : 152935
NUMBER_OF_BYTES : 391513600
_STATISTICS_WRITING_APP : mkvmerge v8.8.0 ('Wind at my back') 64bit
_STATISTICS_WRITING_DATE_UTC : 2016-01-23 14:44:17
_STATISTICS_TAGS : BPS DURATION NUMBER_OF_FRAMES NUMBER_OF_BYTES

Video
ID : 1
Format : AVC
Format/Info : Advanced Video Codec
Format profile : [email protected]
Format settings, CABAC : Yes
Format settings, ReFrames : 4 frames
Codec ID : V_MPEG4/ISO/AVC
Bit rate : 13.0 Mbps
Width : 1 920 pixels
Height : 1 080 pixels
Display aspect ratio : 16:9
Frame rate mode : Variable
Color space : YUV
Chroma subsampling : 4:2:0
Bit depth : 8 bits
Scan type : Progressive
Writing library : core 128 r2216M 198a7ea
Encoding settings : cabac=1 / ref=4 / deblock=1:-3:-3 / analyse=0x3:0x133 / me=umh / subme=10 / psy=1 / psy_rd=1.00:0.15 / mixed_ref=1 / me_range=32 / chroma_me=1 / trellis=2 / 8x8dct=1 / cqm=0 / deadzone=0,0 / fast_pskip=0 / chroma_qp_offset=-3 / threads=8 / lookahead_threads=1 / sliced_threads=0 / nr=0 / decimate=1 / interlaced=0 / bluray_compat=0 / constrained_intra=0 / bframes=8 / b_pyramid=2 / b_adapt=2 / b_bias=0 / direct=3 / weightb=1 / open_gop=0 / weightp=2 / keyint=230 / keyint_min=23 / scenecut=40 / intra_refresh=0 / rc_lookahead=60 / rc=crf / mbtree=1 / crf=17.0 / qcomp=0.60 / qpmin=0 / qpmax=69 / qpstep=4 / vbv_maxrate=40000 / vbv_bufsize=30000 / crf_max=30.0 / nal_hrd=none / ip_ratio=1.40 / aq=1:0.90
Default : No
Forced : No

Audio #1
ID : 2
Format : AC-3
Format/Info : Audio Coding 3
Mode extension : CM (complete main)
Format settings, Endianness : Big
Codec ID : A_AC3
Duration : 1h 21mn
Bit rate mode : Constant
Bit rate : 192 Kbps
Channel count : 2 channels
Channel positions : Front: L R
Sampling rate : 48.0 KHz
Bit depth : 16 bits
Compression mode : Lossy
Stream size : 112 MiB (1%)
Language : Ukrainian
Default : Yes
Forced : No

Audio #2
ID : 3
Format : AC-3
Format/Info : Audio Coding 3
Mode extension : CM (complete main)
Format settings, Endianness : Big
Codec ID : A_AC3
Duration : 1h 21mn
Bit rate mode : Constant
Bit rate : 640 Kbps
Channel count : 6 channels
Channel positions : Front: L C R, Side: L R, LFE
Sampling rate : 48.0 KHz
Bit depth : 16 bits
Compression mode : Lossy
Stream size : 373 MiB (5%)
Language : English
Default : No
Forced : No
Скріншоти
Джерело: &
Особиста оцінка: 0 - не дивився

Українська доріжка - Vasua95


 Трекер:    Зареєстрований   

Завантажити / скачати мультфільм українською



відео для новачків



 Зареєстрований:   2016-01-24 13:36
 Розмір:   8.06 GB 
 Оцінка мультфільму:   10/10 (Голосів: 4)
   
Інші релізи
   Переполох у джунглях / Jungle Shuffle (2014) 720p Ukr/Eng igor911  2 / 0   3.39 GB   2016-01-24 12:18 
   Переполох у джунглях / Jungle Shuffle (2014) AngryBirdsUA  14 / 0   1.37 GB   2016-01-23 10:47 
Ваш часовий пояс: GMT + 2 Години

Нова тема   Відповісти