Феї і легенда загадкового звіра / Tinker Bell: Legend of the NeverBeast (2014) 1080p 3D Ukr/Eng [Half SideBySide]

Нові коментарі

Нова тема   Відповісти
Автор Повідомлення
-VipeR- 
VIP


З нами з: 17.07.08
Востаннє: 19.08.17
Повідомлень: 289

2016-01-09 15:50  
Феї і легенда загадкового звіра / Tinker Bell: Legend of the NeverBeast (2014) 1080p 3D Ukr/Eng [Half SideBySide]

Феї і легенда загадкового звіра / Tinker Bell: Legend of the NeverBeast (2014) 1080p 3D Ukr/Eng [Half SideBySide]


Жанр: мультфільм, пригоди, сімейний
Країна: США



Кінокомпанія: DisneyToon Studios, Prana Studios
Режисер: Стів Лотер
Актори: Джиніфер Ґудвін, Мія Вайтмен, Люсі Ліу, Памела Едлон, Джесі МакКартні, Анджеліка Г’юстон та інші.

Сюжет:
Улюблениці всього світу чарівні і кмітливі Феї знову з нами. Фея тварин Фауна потоваришувала зі злим таємничим Звіром, який наводить жах на всю Небувалію. Однак тепер вона мусить довести всім, що це добра істота і не шкодить іншим.


Тривалість: 01:16:14
Якість: 1080 3D Half SideBySide by Ash61

Відео:
кодек:
розмір кадру: 1920 х 1080
бітрейт: 12.0 Мбіт/с

Аудіо # 1:
мова: українська
переклад: професійний дубльований Disney / Buena Vista
кодек: 5.1
бітрейт: 640 кбіт/с

Аудіо # 2:
мова: англійська
переклад: оригінал
кодек: 5.1
бітрейт: 640 кбіт/с

Джерело озвучення:
Info
General
Unique ID : 241997029771688995971370349827275018208 (0xB60EEEBF76BEFA899287584B8186CFE0)
Complete name : D:\3D\Мультики\Феї і легенда загадкового звіра TinkerBellAndTheLegendOfTheNeverbeast(2014)3D-halfSBS()RmxAsh61 (1).
Format :
Format version : Version 4 / Version 2
File size : 7.24 GiB
Duration : 1h 16mn
Overall bit rate : 13.6 Mbps
Movie name : Феи: Легенда о чудовище / Tinker Bell and the Legend of the NeverBeast (2014) 3D
Encoded date : UTC 2016-01-06 09:56:07
Writing application : mkvmerge v6.6.0 ('The Edge Of The In Between') built on Dec 18 2013 23:19:42
Writing library : libebml v1.3.0 + libmatroska v1.4.1

Video
ID : 1
Format : AVC
Format/Info : Advanced Video Codec
Format profile : [email protected]
Format settings, CABAC : Yes
Format settings, ReFrames : 3 frames
Codec ID : V_MPEG4/ISO/AVC
Duration : 1h 16mn
Bit rate : 12.0 Mbps
Width : 1 920 pixels
Height : 1 080 pixels
Display aspect ratio : 16:9
Frame rate mode : Constant
Frame rate : 24.000 fps
Standard : Component
Color space : YUV
Chroma subsampling : 4:2:0
Bit depth : 8 bits
Scan type : Progressive
Bits/(Pixel*Frame) : 0.242
Stream size : 6.42 GiB (89%)
Title : (remux by Ash61)
Language : English
Default : Yes
Forced : No
Color range : Limited
Color primaries : BT.709
Transfer characteristics : BT.709
Matrix coefficients : BT.709

Audio #1
ID : 2
Format : AC-3
Format/Info : Audio Coding 3
Mode extension : CM (complete main)
Format settings, Endianness : Big
Codec ID : A_AC3
Duration : 1h 16mn
Bit rate mode : Constant
Bit rate : 640 Kbps
Channel(s) : 6 channels
Channel positions : Front: L C R, Side: L R, LFE
Sampling rate : 48.0 KHz
Frame rate : 31.250 fps (1536 spf)
Compression mode : Lossy
Delay relative to video : 13ms
Stream size : 349 MiB (5%)
Title : Дубляж - Disney / Buena Vista
Language : Ukrainian
Default : No
Forced : No

Audio #2
ID : 3
Format : AC-3
Format/Info : Audio Coding 3
Mode extension : CM (complete main)
Format settings, Endianness : Big
Codec ID : A_AC3
Duration : 1h 16mn
Bit rate mode : Constant
Bit rate : 640 Kbps
Channel(s) : 6 channels
Channel positions : Front: L C R, Side: L R, LFE
Sampling rate : 48.0 KHz
Frame rate : 31.250 fps (1536 spf)
Compression mode : Lossy
Delay relative to video : 13ms
Stream size : 349 MiB (5%)
Title : Original - BD Eur
Language : English
Default : No
Forced : No

Menu
00:00:00.000 : :1. Awakening The Beast
00:03:09.961 : :2. Baby Hawk
00:10:56.844 : :3. A Great Discovery
00:16:46.860 : :4. An Understanding
00:20:28.457 : :5. Making Friends
00:24:22.274 : :6. Tower Building
00:31:00.505 : :7. Introducing Gruff
00:34:43.811 : :8. Fawn's Expertise
00:38:11.018 : :9. The Beast's Safety
00:41:14.785 : :10. The Search Begins
00:44:41.241 : :11. Transformation
00:49:56.765 : :12. Learning The Truth
00:53:07.539 : :13. Fighting The Storm
00:57:09.656 : :14. Saving Pixie Hollow
01:02:56.461 : :15. Going Home
01:07:56.385 : :16. End Credits
Скріншоти
Джерело:
Особиста оцінка: 0 - не дивився


 Трекер:    Зареєстрований   

Завантажити / скачати мультфільм українською



відео для новачків



 Зареєстрований:   2016-01-09 15:50
 Розмір:   7.24 GB 
 Оцінка мультфільму:   10/10 (Голосів: 4)
   
igor911 
Відео Гуртом
Відео Гуртом


З нами з: 18.01.08
Востаннє: 19.08.17
Повідомлень: 7291

2016-01-09 16:44  
1)укр.доріжка в описі
-VipeR- написано:
кодек: 5.1

медіаінфо
-VipeR- написано:
Format : AC-3

виправ

2)в описі ориг.звуку замість "АС3" повинно бути "AC-3" таки має бути "АС3", виправив.

3)
-VipeR- написано:
Sub Eng

де вони? прибери.

4)Замість "Феї і легенда загадкового звіра TinkerBellAndTheLegendOfTheNeverbeast(2014)3D-halfSBS()RmxAsh61 (1)."
краще на майбутнє називати файл приблизно ось так: "Tinker Bell Legend of the NeverBeast (2014) [Ukr,Eng] 1080p 3D Half-SBS.".

Ваш часовий пояс: GMT + 2 Години

Нова тема   Відповісти