Махни крилом! (Yellowbird) / Gus - Petit oiseau, grand voyage (2014) 1080p 3D Ukr/Fre | Sub Fre/Eng [Half OverUnder]

Нові коментарі

Нова тема   Відповісти
Останній раз роздавалося -VipeR- (2017-08-14)
Автор Повідомлення
-VipeR- 
VIP


З нами з: 17.07.08
Востаннє: 18.08.17
Повідомлень: 289

2016-01-04 13:27  
Махни крилом! (Yellowbird) / Gus - Petit oiseau, grand voyage (2014) 1080p 3D Ukr/Fre | Sub Fre/Eng [Half OverUnder]

Махни крилом! (Yellowbird) / Gus - Petit oiseau, grand voyage (2014) 1080p 3D Ukr/Fre | Sub Fre/Eng [Half OverUnder]


Жанр: анімація, комедія, пригодницький, сімейний
Країна: Франція, Бельгія



Кінокомпанія: TeamTO, Haut et Court, La Compagnie Cinématographique, Panache Productions, Centre National de la Cinématographie (CNC), Backup Media
Режисер: Крістіан Де Віта / Christian De Vita
Актори: Оригінальне озвучення: Артур Дюпон / Arthur Dupont, Сара Форестьє / Sara Forestier, Бруно Саломон / Bruno Salomone, П’єр Рішар / Pierre Richard, Ізабель Рено / Isabelle Renauld, Наталі Бутфо / Nathalie Boutefeu

Сюжет:
Щороку всі птахи відлітають на південь. Повинна відлетіти і зграя нашого юного героя Чижика, але в останній момент перед перельотом на ватажка зграї Даріуса нападає злий кіт. Тільки Даріус знає дорогу на південь, і він встигає передати секрет Чижику, який тепер має стати ватажком зграї. У Чижика немає досвіду таких далеких перельотів, і тим більше, досвіду лідерства в зграї, але йому не залишається нічого, крім як швидко вчитися.


Тривалість: 01:30:10
Якість: 1080p 3D [Half OverUnder]
Відео:
кодек:
розмір кадру: 1920x1080
бітрейт: 16 Mбіт/с

Аудіо # 1:
мова: українська
переклад: багатоголосий закадровий
кодек: 2.0
бітрейт: 192 кбіт/с

Аудіо # 2:
мова: французька
переклад: оригінал
кодек: 5.1
бітрейт: 1509 кбіт/с

Джерело озвучення:


Субтитри:
мова: французька
тип: програмні (м'які)
формат: *.srt

Субтитри:
мова: англійська
тип: програмні (м'які)
формат: *.srt
Info
General
Unique ID : 215692642585257374816080404653737733420 (0xA244E45478167545A081FBFD5DD36D2C)
Complete name : D:\3D\Мультики\Махни крилом (Gus - Petit oiseau, grand voyage) (2014) [Ukr,Fre sub.Fre,Eng] 3D 1080p.
Format :
Format version : Version 4 / Version 2
File size : 11.2 GiB
Duration : 1h 30mn
Overall bit rate : 17.9 Mbps
Movie name : Yellowbird.2014.3D.H-OU.[torrent3d.ru]
Encoded date : UTC 2016-01-03 13:55:34
Writing application : mkvmerge v6.6.0 ('The Edge Of The In Between') built on Dec 18 2013 23:19:42
Writing library : libebml v1.3.0 + libmatroska v1.4.1
Cover : Yes
Attachments : cover.jpg / x264log.txt

Video
ID : 1
Format : AVC
Format/Info : Advanced Video Codec
Format profile : [email protected]
Format settings, CABAC : Yes
Format settings, ReFrames : 2 frames
Codec ID : V_MPEG4/ISO/AVC
Duration : 1h 30mn
Bit rate : 16.0 Mbps
Width : 1 920 pixels
Height : 1 080 pixels
Display aspect ratio : 16:9
Frame rate mode : Constant
Frame rate : 23.976 (24000/1001) fps
Color space : YUV
Chroma subsampling : 4:2:0
Bit depth : 8 bits
Scan type : Progressive
Bits/(Pixel*Frame) : 0.322
Stream size : 9.95 GiB (88%)
Writing library : core 142
Encoding settings : cabac=1 / ref=1 / deblock=1:-1:-1 / analyse=0x3:0 / me=hex / subme=5 / psy=0 / mixed_ref=0 / me_range=16 / chroma_me=1 / trellis=0 / 8x8dct=1 / cqm=0 / deadzone=21,11 / fast_pskip=1 / chroma_qp_offset=0 / threads=8 / lookahead_threads=2 / sliced_threads=0 / nr=0 / decimate=1 / interlaced=0 / bluray_compat=0 / constrained_intra=0 / bframes=2 / b_pyramid=0 / b_adapt=1 / b_bias=0 / direct=1 / weightb=1 / open_gop=0 / weightp=0 / keyint=24 / keyint_min=13 / scenecut=40 / intra_refresh=0 / rc=abr / mbtree=0 / bitrate=16000 / ratetol=1.0 / qcomp=0.60 / qpmin=0 / qpmax=69 / qpstep=4 / ip_ratio=1.40 / pb_ratio=1.30 / aq=1:1.00
Default : No
Forced : No
Color range : Limited
Color primaries : BT.709
Transfer characteristics : BT.709
Matrix coefficients : BT.709

Audio #1
ID : 2
Format : AC-3
Format/Info : Audio Coding 3
Mode extension : CM (complete main)
Format settings, Endianness : Big
Codec ID : A_AC3
Duration : 1h 30mn
Bit rate mode : Constant
Bit rate : 192 Kbps
Channel(s) : 2 channels
Channel positions : Front: L R
Sampling rate : 48.0 KHz
Frame rate : 31.250 fps (1536 spf)
Compression mode : Lossy
Delay relative to video : 21ms
Stream size : 124 MiB (1%)
Title : MVO [ААА-sound-Megogo] 2.0 192 kbps [Hurtom-Vasua95]
Language : Ukrainian
Default : Yes
Forced : No
Statistics Tags Issue : mkvmerge v8.3.0 ('Over the Horizon') 64bit 2015-09-18 11:11:16 / mkvmerge v6.6.0 ('The Edge Of The In Between') built on Dec 18 2013 23:19:42 2016-01-03 13:55:34
FromStats_BitRate : 192000
FromStats_Duration : 01:30:10.688000000
FromStats_FrameCount : 169084
FromStats_StreamSize : 129856512

Audio #2
ID : 3
Format :
Format/Info : Digital Theater Systems
Mode : 16
Format settings, Endianness : Big
Codec ID : A_DTS
Duration : 1h 30mn
Bit rate mode : Constant
Bit rate : 1 509 Kbps
Channel(s) : 6 channels
Channel positions : Front: L C R, Side: L R, LFE
Sampling rate : 48.0 KHz
Frame rate : 93.750 fps (512 spf)
Bit depth : 16 bits
Compression mode : Lossy
Stream size : 973 MiB (8%)
Title : Original 5.1 1509 kbps
Language : French
Default : No
Forced : No
Statistics Tags Issue : mkvmerge v8.3.0 ('Over the Horizon') 64bit 2015-09-18 11:11:16 / mkvmerge v6.6.0 ('The Edge Of The In Between') built on Dec 18 2013 23:19:42 2016-01-03 13:55:34
FromStats_BitRate : 1508999
FromStats_Duration : 01:30:10.742000000
FromStats_FrameCount : 507257
FromStats_StreamSize : 1020601084

Text #1
ID : 4
Format : UTF-8
Codec ID : S_TEXT/UTF8
Codec ID/Info : UTF-8 Plain Text
Title : Fre
Language : French
Default : No
Forced : No
Statistics Tags Issue : mkvmerge v8.3.0 ('Over the Horizon') 64bit 2015-09-18 11:11:16 / mkvmerge v6.6.0 ('The Edge Of The In Between') built on Dec 18 2013 23:19:42 2016-01-03 13:55:34
FromStats_BitRate : 67
FromStats_Duration : 01:27:05.178000000
FromStats_FrameCount : 1295
FromStats_StreamSize : 44316

Text #2
ID : 5
Format : UTF-8
Codec ID : S_TEXT/UTF8
Codec ID/Info : UTF-8 Plain Text
Title : Eng
Language : English
Default : No
Forced : No
Statistics Tags Issue : mkvmerge v8.3.0 ('Over the Horizon') 64bit 2015-09-18 11:11:16 / mkvmerge v6.6.0 ('The Edge Of The In Between') built on Dec 18 2013 23:19:42 2016-01-03 13:55:34
FromStats_BitRate : 51
FromStats_Duration : 01:26:10.206000000
FromStats_FrameCount : 1015
FromStats_StreamSize : 33368

Menu
00:00:00.000 : en:(01)00:00:00:000
00:06:45.655 : en:(02)00:06:45:655
00:13:25.221 : en:(03)00:13:25:221
00:20:21.261 : en:(04)00:20:21:261
00:26:29.379 : en:(05)00:26:29:379
00:33:07.819 : en:(06)00:33:07:819
00:40:10.408 : en:(07)00:40:10:408
00:49:23.460 : en:(08)00:49:23:460
00:58:53.571 : en:(09)00:58:53:571
01:06:34.532 : en:(10)01:06:34:532
01:12:39.730 : en:(11)01:12:39:730
01:20:58.228 : en:(12)01:20:58:228
Скріншоти
Джерело: &
ріп відео stereotraker, оригінальні звук та субтитри - holoff (рутрекер); українська доріжка - Vasua95; українізований постер - igor911; фільмографія - Віктор (всі - Гуртом).
Особиста оцінка: 0 - не дивився


 Трекер:    Зареєстрований   

Завантажити / скачати мультфільм українською



відео для новачків



 Зареєстрований:   2016-01-04 13:27
 Розмір:   11.25 GB 
 Оцінка мультфільму:   10/10 (Голосів: 1)
   
igor911 
Відео Гуртом
Відео Гуртом


З нами з: 18.01.08
Востаннє: 18.08.17
Повідомлень: 7278

2016-01-04 15:55  
-VipeR- написано:
Encoding settings : ref=1 / me=hex / subme=5 / me_range=16 / fast_pskip=1 / bframes=2 / rc=abr

Паршивенькі налаштування кодування, рятує хіба що бітрейт. Для сучасного ріпу, на майбутнє, старайся підбирати відео з кращими параметрами.
Додаток до релізів в якості HD написано:

5. Обов'язкові технічні вимоги:
Параметри кодування мають відповідати хоча б me=umh, subme=7, ref=3

-VipeR- 
VIP


З нами з: 17.07.08
Востаннє: 18.08.17
Повідомлень: 289

2016-01-04 16:22  
igor911
Ріп на стереотрекері робили, мабуть ще у 2014-тому.

igor911 
Відео Гуртом
Відео Гуртом


З нами з: 18.01.08
Востаннє: 18.08.17
Повідомлень: 7278

2016-01-04 16:31  
-VipeR-, я мав на увазі, що є старенькі ріпи на зорі х264, до фільмів, до яких вже й живих джерел в неті немає, і немає де взяти іншого ріпу. До сучасних ріпів (в т.ч. 2014) вимоги мають бути теж сучаснішими. Хоча б такими, що відповідають правилам.

Додано через 25 секунд:

В даному випадку я зробив виняток.

-VipeR- 
VIP


З нами з: 17.07.08
Востаннє: 18.08.17
Повідомлень: 289

2016-01-04 17:12  
igor911
Якою програмою робити ріп з iso. фільму? Чи тільки скриптами?

igor911 
Відео Гуртом
Відео Гуртом


З нами з: 18.01.08
Востаннє: 18.08.17
Повідомлень: 7278

2016-01-04 17:28  
-VipeR-, iso - це ж образ (оригінального) диску, підключай його менеджером вірт.дисків (Alcohol 120% наприклад), далі працюєш, ніби в тебе вставлений диск з блу-реєм. Ріпи робляться MeGUI або XviD4PSP. Простенький мануал є в нас https://toloka.to/t63946, інші шукай в розділі https://toloka.to/f164 та в неті.
-VipeR- 
VIP


З нами з: 17.07.08
Востаннє: 18.08.17
Повідомлень: 289

2016-01-04 18:05  
igor911
Дякую Happy

Ваш часовий пояс: GMT + 2 Години

Нова тема   Відповісти