Море чудес / Indonesia's Raja Ampat (2012) HDTV 720p Eng | Sub Ukr

Нові коментарі

Нова тема   Відповісти
Автор Повідомлення
wolesj 
VIP


З нами з: 15.07.12
Востаннє: 16.12.17
Повідомлень: 471

2016-01-03 16:34  
Море чудес / Indonesia's Raja Ampat (2012) HDTV 720p Eng | Sub Ukr

Море чудес / Indonesia's Raja Ampat (2012) HDTV 720p Eng | Sub Ukr


Жанр: документальний
Країна: Японія
Офіційний сайт:
http://pf.nhk-ep.co.jp/detail/1783

Кінокомпанія: NHK Documentary
Режисер: Кеншу Мімакі
Сюжет:
Води індонезійського архіпелагу Раджа Ампат, що прихистили найдивовижніші морські види світу, отримали назву «Море чудес». Японські дайвери вирішили перевірити назву і вперше занурились в цей таємничий світ…


Тривалість: 00:28:59
Якість: HDTV
Відео:
кодек:
розмір кадру: 1280x720
бітрейт: 3672 Kbps

Аудіо:
мова: англійська
переклад: оригінал
кодек: 2.0
бітрейт: 110 Kbps

Субтитри:
мова: українська (переклад з англійської wolesj)
тип: програмні (м'які)
формат: *.srt

Субтитри:
мова: англійська
тип: програмні (м'які)
формат: *.srt

Субтитри:
мова: англійська
тип: вбудовані (жорсткі) (на японську мову)
формат: *.srt
Info
Complete name : Indonesias.Raja.Ampat.(2012) 720p.HDTV [Sub Ukr].mp4
Format : MPEG-4
Format profile : Base Media
Codec ID : isom
File size : 785 MiB
Duration : 28mn 59s
Overall bit rate : 3 785 Kbps
Encoded date : UTC 2015-12-09 13:57:00
Tagged date : UTC 2015-12-09 13:57:00

Video
Format : AVC
Format/Info : Advanced Video Codec
Format profile : [email protected]
Format settings, CABAC : Yes
Format settings, ReFrames : 9 frames
Codec ID : avc1
Codec ID/Info : Advanced Video Coding
Duration : 28mn 59s
Bit rate mode : Variable
Bit rate : 3 672 Kbps
Maximum bit rate : 19.6 Mbps
Width : 1 280 pixels
Height : 720 pixels
Display aspect ratio : 16/9
Frame rate mode : Constant
Frame rate : 29.970 fps
Resolution : 24 bits
Colorimetry : 4:2:0
Scan type : Progressive
Bits/(Pixel*Frame) : 0.133
Stream size : 761 MiB (97%)
Writing library : core 148 r2579 73ae2d1
Encoding settings : cabac=1 / ref=9 / deblock=1:-1:-1 / analyse=0x3:0x133 / me=umh / subme=10 / psy=1 / psy_rd=1.00:0.00 / mixed_ref=1 / me_range=24 / chroma_me=1 / trellis=2 / 8x8dct=1 / cqm=0 / deadzone=21,11 / fast_pskip=1 / chroma_qp_offset=-2 / threads=9 / lookahead_threads=1 / sliced_threads=0 / nr=0 / decimate=1 / interlaced=0 / bluray_compat=0 / constrained_intra=0 / bframes=6 / b_pyramid=2 / b_adapt=2 / b_bias=0 / direct=3 / weightb=1 / open_gop=0 / weightp=2 / keyint=360 / keyint_min=29 / scenecut=40 / intra_refresh=0 / rc_lookahead=60 / rc=crf / mbtree=1 / crf=21.0 / qcomp=0.60 / qpmin=0 / qpmax=69 / qpstep=4 / vbv_maxrate=62500 / vbv_bufsize=78125 / crf_max=0.0 / nal_hrd=none / filler=0 / ip_ratio=1.40 / aq=1:1.00 / cabac=1 / ref=9 / deblock=1:-1:-1 / analyse=0x3:0x133 / me=umh / subme=10 / psy=1 / psy_rd=1.00:0.00 / mixed_ref=1 / me_range=24 / chroma_me=1 / trellis=2 / 8x8dct=1 / cqm=0 / deadzone=21,11 / fast_pskip=1 / chroma_qp_offset=-2 / threads=9 / lookahead_threads=1 / sliced_threads=0 / nr=0 / decimate=1 / interlaced=0 / bluray_compat=0 / constrained_intra=0 / bframes=6 / b_pyramid=2 / b_adapt=2 / b_bias=0 / direct=3 / weightb=1 / open_gop=0 / weightp=2 / keyint=360 / keyint_min=29 / scenecut=40 / intra_refresh=0 / rc_lookahead=60 / rc=crf / mbtree=1 / crf=21.0 / qcomp=0.60 / qpmin=0 / qpmax=69 / qpstep=4 / vbv_maxrate=62500 / vbv_bufsize=78125 / crf_max=0.0 / nal_hrd=none / filler=0 / ip_ratio=1.40 / aq=1:1.00
Encoded date : UTC 2015-12-09 04:55:23
Tagged date : UTC 2015-12-09 13:58:32

Audio
Format :
Format/Info : Advanced Audio Codec
Format version : Version 4
Format profile : LC
Format settings, SBR : No
Codec ID : 40
Duration : 28mn 59s
Bit rate mode : Variable
Bit rate : 110 Kbps
Maximum bit rate : 125 Kbps
Channel(s) : 2 channels
Channel positions : L R
Sampling rate : 48.0 KHz
Resolution : 16 bits
Stream size : 22.7 MiB (3%)
Language : English
Encoded date : UTC 2015-12-09 13:55:09
Tagged date : UTC 2015-12-09 13:58:32
Скріншоти:



Джерело: MVGroup
Особиста оцінка: 8 - мені сподобалось
ДЯКУЮ ЗА ПІДТРИМКУ РОЗДАЧІ!


Золотий реліз (завантажене не впливає на рейтинг)
 Трекер:    Зареєстрований   

Завантажити / скачати фільм українською



відео для новачків



 Зареєстрований:   2016-01-03 16:34
 Розмір:   785 MB 
 Оцінка фільму:   10/10 (Голосів: 5)
   
Ваш часовий пояс: GMT + 2 Години

Нова тема   Відповісти