Найсміливіші злодюжки / Nature's Boldest Thieves (2014) HDTV 720p Eng | Sub Ukr

Нові коментарі

Нова тема   Відповісти
Автор Повідомлення
wolesj 
VIP


З нами з: 15.07.12
Востаннє: 19.08.17
Повідомлень: 454

2015-12-19 18:59  
Найсміливіші злодюжки / Nature's Boldest Thieves (2014) HDTV 720p Eng | Sub Ukr

Найсміливіші злодюжки / Nature's Boldest Thieves (2014) HDTV 720p Eng | Sub Ukr


Жанр: природничий, документальний
Країна: Велика Британія



Кінокомпанія: Finestripe productions для BBC
Режисер: Метью Ейнсворт
Актори: Люсі Кук, Дон Скотт, Ґрем Мартін, Стівен Портюґал та інші

Сюжет:
Журналіст і зоолог Люсі Кук вивчає, чому чайки, лисиці, білки і борсуки прижились в містах і крадуть в людей їжу.

Тривалість: 00:48:59
Якість: HDTV
Відео:
кодек:
розмір кадру: 1280x720
бітрейт: 3 030 Kbps

Аудіо:
мова: англійська
переклад: оригінал
кодек: 2.0
бітрейт: 160 Kbps

Субтитри:
мова: українська (власний переклад з ангійської)
тип: програмні (м'які)
формат: *.srt

Субтитри:
мова: англійська
тип: програмні (м'які)
формат: *.srt
Info
General
Complete name : D:Nature's Boldest Thieves (2014) HDTV 720 [Sub Ukr].mp4
Format : MPEG-4
Format profile : Base Media
Codec ID : isom
File size : 1.09 GiB
Duration : 48mn 59s
Overall bit rate : 3 192 Kbps
Encoded date : UTC 2015-08-20 08:47:05
Tagged date : UTC 2015-08-20 08:47:05
Writing application : My MP4Box GUI 0.6.0.0 <http://my-mp4box-gui.zymichost.com>

Video
Format : AVC
Format/Info : Advanced Video Codec
Format profile : [email protected]
Format settings, CABAC : No
Format settings, ReFrames : 1 frame
Codec ID : avc1
Codec ID/Info : Advanced Video Coding
Duration : 48mn 59s
Bit rate mode : Variable
Bit rate : 3 030 Kbps
Maximum bit rate : 16.3 Mbps
Width : 1 280 pixels
Height : 720 pixels
Display aspect ratio : 16/9
Frame rate mode : Variable
Frame rate : 25.000 fps
Resolution : 24 bits
Colorimetry : 4:2:0
Scan type : Progressive
Bits/(Pixel*Frame) : 0.131
Stream size : 1.04 GiB (95%)
Title : BBC.Natures.Boldest.Thieves.720p.HDTV...MVGroup.org.mp4
Encoded date : UTC 2015-08-19 22:27:09
Tagged date : UTC 2015-08-20 08:48:00

Audio
Format :
Format/Info : Advanced Audio Codec
Format version : Version 4
Format profile : LC
Format settings, SBR : No
Codec ID : 40
Duration : 48mn 59s
Bit rate mode : Variable
Bit rate : 160 Kbps
Maximum bit rate : 239 Kbps
Channel(s) : 2 channels
Channel positions : L R
Sampling rate : 48.0 KHz
Resolution : 16 bits
Stream size : 56.1 MiB (5%)
Title : BBC.Natures.Boldest.Thieves.720p.HDTV...MVGroup.org.mp4
Encoded date : UTC 2015-08-20 08:47:57
Tagged date : UTC 2015-08-20 08:48:00

Text
Format : Timed text
Codec ID : tx3g
Duration : 48mn 59s
Bit rate mode : Variable
Bit rate : 102 bps
Stream size : 36.9 KiB (0%)
Title : BBC.Natures.Boldest.Thieves.720p.HDTV...MVGroup.org.srt
Encoded date : UTC 2015-08-20 08:48:00
Tagged date : UTC 2015-08-20 08:48:00
Скріншоти



Джерело: MVGroup
Особиста оцінка: 8
ДЯКУЮ ЗА ПІДТРИМКУ РОЗДАЧІ!


Золотий реліз (завантажене не впливає на рейтинг)
 Трекер:    Зареєстрований   

Завантажити / скачати фільм українською



відео для новачків



 Зареєстрований:   2015-12-20 02:56
 Розмір:   1.09 GB 
 Оцінка фільму:   10/10 (Голосів: 2)
   
Ваш часовий пояс: GMT + 2 Години

Нова тема   Відповісти