Завантажити та скачати торренти українською


Сім епох Британії / Seven Ages of Britain (2010) 720p Ukr/Eng | Sub Ukr/Eng

Нові коментарі

Нова тема   Відповісти
Автор Повідомлення
Студія Hurtom 
Відео Гуртом - фільмокрай
Відео Гуртом - фільмокрай


З нами з: 16.01.15
Востаннє: 19.02.17
Повідомлень: 457

2015-12-06 18:46  

Завантажити повний сезон:
| 720p

Також вас може зацікавити: Як ми будували Британію / How We Built Britain (2007):
| 720p

Сім епох Британії / Seven Ages of Britain (2010) 720p Ukr/Eng | Sub Ukr/Eng



Кошти на озвучення надано одним меценатом, який побажав, щоб його ім’я не називали.



Жанр: документальний
Країна: Британія


Кінокомпанія / телеканал: Open University, The See
Автор і ведучий: Дейвід Дімблбі.
Актори: Дейвід Дімблбі та інші.

Сюжет:
У «Сімох епохах Британії» Дейвід Дімблбі накреслює знакову історію найвидатніших пам’яток мистецтва та артефактів Альбіону. Створені за участю Відкритого Університету, «Сім епох Британії» розглядають нашу небуденну минувшину крізь призму мистецтв: скарбів, що часто грали вирішальну роль у перипетіях історії, і чудес своєї доби. Тут усе: від мальованих зображень та монументів з каменю й золота до релігійних реліквій, зброї, наукових інструментів і мистецьких шедеврів. Нерідко це артефакти високої краси та майстерності, а іноді звичайні повсякденні предмети з надзвичайною історією. У рамках сімох годинних програм Дейвід мандрує по світах – по Італії, Німеччині, Туреччині, Індії, по Америці – вишукуючи дивовижні артефакти, що, походячи з Британії та символізуючи якусь історичну подію, покинули рідні береги. Інспектор «BBC-1» Джей Гант каже: «Сім епох Британії» – це наш грандіозний мистецтвознавчий проект. А Дейвід з його журналістським запалом та блиском в очах удмухує життя в предмет дослідження.»



Озвучено і субтитровано Студією Гуртом:
Окуповані / Okkupert - сезон 1
Бункери, бруталізм і бунтарство: поезія в бетоні з Джонатаном Мідсом /
Bunkers, Brutalism and Bloodymindedness: Concrete Poetry with Jonathan Meades (2014)

Пан Робот / Mr. Robot — сезон 1, сезон 2
Краще подзвоніть Солу / Better Call Saul — сезон 1, сезон 2
Фарґо / Fargo — сезон 1, сезон 2
Картковий будинок / House of Cards — сезони 1-2-3-4
Кремнієва Долина / Silicon Valley — сезон 1, сезон 2, сезон 3
Зупинись і гори / Halt and Catch Fire — сезон 1, сезон 2
Останнє Королівство / The Last Kingdom — сезон 1
Сім епох Британії / Seven Ages of Britain (2010)
Як ми будували Британію / How We Built Britain (2007)
Суфражистка / Suffragette (2015)
Фарґо / Fargo (1996)





Тривалість: ~60 хв. серія (цілком серій: 7)
Перелік серій


Доба завоювань / Age of Conquest — Епізод 1

Сюжет:
Перша частина хроніки починається з римського вторгнення й кінчається Нормандським завоюванням. Дейвід їздить по Британії, розповідаючи про найвидатніші мистецькі твори тих часів: мозаїки римської вілли в Біґнорі, скарб кургану Сатон-Гу, англо-саксонську поезію та Клейнод Альфреда Великого.


Доба поклонінь / Age of Worship — Епізод 2

Сюжет:
Історія британського мистецтва в Середніх віках на проміжку часу від убивства Томаса Бекета 1170 року до смерті Річарда ІІ 1400 року. Ту добу характеризувало поклоніння: чи то Богові, чи то монархові, чи то дамі серця.


Доба могутності / Age of Power — Епізод 3

Сюжет:
У цьому епізоді показані Тюдори й він охоплює проміжок часу від інтронізації Генріха VIII 1509 року до першої вистави Шекспірового «Генріха VIII» рівно через сто років.


Доба революції / Age of Revolution — Епізод 4

Сюжет:
У XVII столітті народ Британії навчився ставити все під сумнів. Наслідком стала Громадянська війна, в якій усі, з митцями включно, мусили обрати бік барикад. А вийшла з того переосмислена монархія, наукова революція та, врешті, величний Собор Святого Павла.


Доба грошей / Age of Money — Епізод 5

Сюжет:
У XVIII столітті тріумф комерції привів до виникнення «середнього» класу – людей, охочих до задоволень та всього нового, зі специфічними мистецькими смаками. І настав золотий вік живопису, коли Гоґарт, Рейнольдс та Ґейнсборо заново створили британський стиль.


Доба імперії / Age of Empire — Епізод 6

Сюжет:
Історія Британської імперії з 1750 по 1900 роки крізь призму її мистецтва й скарбів. Дейвід Дімблбі подорожує по Британії, Америці та Індії, відстежуючи, як, з перетворенням Імперії на бюрократичний апарат для власних потреб, на зміну її моральному піднесенню прийшло її моральне банкрутство.


Доба амбіції / Age of Ambition — Епізод 7

Сюжет:
В останньому епізоді Дейвід Дімблбі озирається на те, як у ХХ столітті рядові брити перекидали старовинні владні структури та класові ієрархії. Каталізатором стала Перша Світова війна, яка зачепила цілий народ і поставила під питання традиційні цінності.
Info

Код:
Format                           :
Format version                   : Version 4 / Version 2
File size                        : 1.81 GiB
Duration                         : 59mn 7s
Overall bit rate                 : 4 385 Kbps
Movie name                       : Seven Ages of Britain. S01.E01 (2010) 720p [Ukr.Eng] [Hurtom]
Encoded date                     : UTC 2015-12-31 21:29:38
Writing application              : mkvmerge v8.1.0 ('Psychedelic Postcard') 32bit
Writing library                  : libebml v1.3.1 + libmatroska v1.4.2
DURATION                         : 00:59:07.136000000
NUMBER_OF_FRAMES                 : 110848
NUMBER_OF_BYTES                  : 85131264
_STATISTICS_WRITING_APP          : mkvmerge v8.1.0 ('Psychedelic Postcard') 32bit
_STATISTICS_WRITING_DATE_UTC     : 2015-12-31 21:29:38
_STATISTICS_TAGS                 : BPS DURATION NUMBER_OF_FRAMES NUMBER_OF_BYTES

Video
ID                               : 1
Format                           : AVC
Format/Info                      : Advanced Video Codec
Format profile                   : High@L4.1
Format settings, CABAC           : Yes
Format settings, ReFrames        : 4 frames
Codec ID                         : V_MPEG4/ISO/AVC
Duration                         : 59mn 7s
Bit rate                         : 4 000 Kbps
Width                            : 1 280 pixels
Height                           : 720 pixels
Display aspect ratio             : 16:9
Frame rate                       : 25.000 fps
Color space                      : YUV
Chroma subsampling               : 4:2:0
Bit depth                        : 8 bits
Scan type                        : Progressive
Bits/(Pixel*Frame)               : 0.174
Stream size                      : 1.62 GiB (89%)
Title                            : Seven Ages of Britain. S01.E01 (2010) 720p [Ukr.Eng] [Hurtom]
Writing library                  : core 80 r1376M 3feaec2
Encoding settings                : cabac=1 / ref=4 / deblock=1:0:0 / analyse=0x3:0x113 / me=umh / subme=9 / psy=1 / psy_rd=1.0:0.0 / mixed_ref=0 / me_range=24 / chroma_me=1 / trellis=1 / 8x8dct=1 / cqm=0 / deadzone=21,11 / fast_pskip=0 / chroma_qp_offset=-2 / threads=3 / sliced_threads=0 / nr=0 / decimate=1 / mbaff=0 / constrained_intra=0 / bframes=3 / b_pyramid=0 / b_adapt=1 / b_bias=0 / direct=1 / wpredb=1 / wpredp=2 / keyint=125 / keyint_min=25 / scenecut=40 / rc_lookahead=40 / rc=2pass / mbtree=1 / bitrate=4000 / ratetol=1.0 / qcomp=0.60 / qpmin=10 / qpmax=51 / qpstep=4 / cplxblur=20.0 / qblur=0.5 / vbv_maxrate=50000 / vbv_bufsize=50000 / ip_ratio=1.40 / aq=1:1.00
Language                         : English
Default                          : Yes
Forced                           : No
DURATION                         : 00:59:07.120000000
NUMBER_OF_FRAMES                 : 88678
NUMBER_OF_BYTES                  : 1773010373
_STATISTICS_WRITING_APP          : mkvmerge v8.1.0 ('Psychedelic Postcard') 32bit
_STATISTICS_WRITING_DATE_UTC     : 2015-12-31 21:29:38
_STATISTICS_TAGS                 : BPS DURATION NUMBER_OF_FRAMES NUMBER_OF_BYTES

Audio #1
ID                               : 2
Format                           : AC-3
Format/Info                      : Audio Coding 3
Mode extension                   : CM (complete main)
Codec ID                         : A_AC3
Duration                         : 59mn 7s
Bit rate mode                    : Constant
Bit rate                         : 192 Kbps
Channel(s)                       : 2 channels
Channel positions                : Front: L R
Sampling rate                    : 48.0 KHz
Bit depth                        : 16 bits
Compression mode                 : Lossy
Stream size                      : 81.2 MiB (4%)
Title                            : 2.0 @ 192 Kbps – озвучено Студією «Hurtom» для Hurtom.com
Language                         : Ukrainian
Default                          : Yes
Forced                           : No

Audio #2
ID                               : 3
Format                           : AC-3
Format/Info                      : Audio Coding 3
Mode extension                   : CM (complete main)
Codec ID                         : A_AC3
Duration                         : 59mn 7s
Bit rate mode                    : Constant
Bit rate                         : 192 Kbps
Channel(s)                       : 2 channels
Channel positions                : Front: L R
Sampling rate                    : 48.0 KHz
Bit depth                        : 16 bits
Compression mode                 : Lossy
Delay relative to video          : 16ms
Stream size                      : 81.2 MiB (4%)
Language                         : English
Default                          : No
Forced                           : No

Text
ID                               : 4
Format                           : UTF-8
Codec ID                         : S_TEXT/UTF8
Codec ID/Info                    : UTF-8 Plain Text
Language                         : English
Default                          : No
Forced                           : No
Якість: 720p
Відео:
кодек:
розмір кадру: 1280х720
бітрейт: ~ 4000 кб/с

Аудіо # 1:
мова: українська
озвучення: професійне багатоголосе закадрове | Студія «Гуртом»
кодек: 2.0
бітрейт: 192 кб/с

Аудіо # 2:
мова: англійська
переклад: оригінал
кодек: 2.0
бітрейт: 192 кб/с

Субтитри:
мова: англійська
тип: програмні (м’які)
формат: *.srt

Субтитри:
мова: українська
тип: програмні (м’які)
формат: *.srt (вони тільки на сервері, в роздачі їх немає окремо завантажити тут)
Скріншоти












Висловлюємо подяку за допомогу: Vasua95


Джерело:


Авторський реліз (завантажувати можна без реєстрації)
 Трекер:    Зареєстрований   

Завантажити / скачати фільм українською



відео для новачків



 Зареєстрований:   2016-01-01 00:05
 Розмір:   12.67 GB 
 Оцінка фільму:   10/10 (Голосів: 27)
   
tman 
Новенький


З нами з: 26.09.08
Востаннє: 25.12.16
Повідомлень: 10

2016-01-01 14:57  
Спробував сьогодні скачати 1-4 серію. 1-ша супер, 2-га і 3-тя глючать прямо з перших хвилин - зображення підвисає Sad (1)((
kino. 
Модератор відео


З нами з: 27.06.10
Востаннє: 19.02.17
Повідомлень: 2900

2016-01-01 15:47  
tman написано:
Спробував сьогодні скачати 1-4 серію. 1-ша супер, 2-га і 3-тя глючать прямо з перших хвилин - зображення підвисає ((

в мене все добре

Студія Hurtom 
Відео Гуртом - фільмокрай
Відео Гуртом - фільмокрай


З нами з: 16.01.15
Востаннє: 19.02.17
Повідомлень: 457

2016-01-01 15:59  
tman написано:
Спробував сьогодні скачати 1-4 серію. 1-ша супер, 2-га і 3-тя глючать прямо з перших хвилин - зображення підвисає Sad (1)((

Треба завантажити 100% роздачі, а потім дивитися.

tman 
Новенький


З нами з: 26.09.08
Востаннє: 25.12.16
Повідомлень: 10

2016-01-03 12:21  
Студія Hurtom

Дякую! Тепер все працює Happy Шикарний серіал!

don pedro 
Попереджень: 1
Попереджень: 1 


З нами з: 29.06.11
Востаннє: 20.02.17
Повідомлень: 9170

2016-01-09 01:53  
Хто б не був невідомий благодійник - я дякую йому.
Ilmarren 
Новенький


З нами з: 07.10.10
Востаннє: 15.02.17
Повідомлень: 3

2016-01-12 22:03  
Неймовірний цикл передач! Дякую
Студія Hurtom 
Відео Гуртом - фільмокрай
Відео Гуртом - фільмокрай


З нами з: 16.01.15
Востаннє: 19.02.17
Повідомлень: 457

2016-04-10 21:20  
Додали українські субтитри на сервер. У роздачі їх немає.
cyberprostir 
Свій


З нами з: 15.11.09
Востаннє: 04.02.17
Повідомлень: 107

2016-11-19 21:00  
Дякую!
Супер серіал і чудове українське озвучення.

Ваш часовий пояс: GMT + 2 Години

Нова тема   Відповісти