Дев’ять / 9 (2009) 1080p 2xUkr/Eng | Sub Ukr/Eng

Нові коментарі

Нова тема   Відповісти
Автор Повідомлення
braveboy 
Відео Гуртом - команда HD
Відео Гуртом - команда HD


З нами з: 15.06.10
Востаннє: 13.08.17
Повідомлень: 949

2015-11-28 06:29  

Дев’ять / 9 (2009) 1080p 2xUkr/Eng | Sub Ukr/Eng


Дев’ять / 9 (2009) 1080p 2xUkr/Eng | Sub Ukr/Eng

«(3) To Difine Us...»

Жанр: анімація, пригодницький, фентезі, фантастика
Країна: США


Кінокомпанія: Focus Features, Relativity Media, Starz Animation; мейджор - Universal Pictures International
Режисер: Шейн Акер / Shane Acker
Актори: Крістофер Пламмер / Christopher Plummer, Мартін Ландау / Martin Landau, Джон К. Рейлі / John C. Reilly, Кріспін Ґловер / Crispin Glover, Дженіфер Конеллі / Jennifer Connelly, Елайджа Вуд / Elijah Wood, Алан Оппенгеймер / Alan Oppenheimer, Том Кейн / Tom Kane та інші.

Сюжет:
Одного разу геніальний професор вигадав штучний інтелект, що будував різноманітні пристрої. Але дуже швидко виробництво було спрямовано на бойові машини. Машини повстали проти творців і людство було знищено. Перед смертю професор, виготовив дев'ять ляльок та вклав у них свою душу.
Девять Персонажів. Девять Характерів. Лише дев'ять проти армії машин. Лише разом вони виживуть та розгадають таємницю свого сотворіння. Ключ криється у талісмані, за допомогою якого професор їх сотворив.

Тривалість: 01:19:14
Якість: 1080p
Відео:
кодек:
розмір кадру: 1920 х 1040
бітрейт: 6182 кб/с

Аудіо # 1:
мова: українська
переклад: професійний дубльований
кодек: 5.1
бітрейт: 384 кб/с

Аудіо # 2:
мова: українська
переклад: багатоголосий закадровий
кодек: 2.0
бітрейт: 192 кб/с

Аудіо # 2:
мова: англійська
переклад: оригінал
кодек: 5.1
бітрейт: 1509 кб/с
Дубльовано студією LeDoyen
Ролі озвучують: Дев'ятий - Павло Скороходько, Перший - Анатолій Барчук, Сьома - Людмила Ардельян, Другий - Василь Мазур, П'ятий - Олег Лепенець, Шостий - Дмитро Завадський, Восьмий - Борис Георгієвський, Науковець - Володимир Нечепоренко
Субтитри:
мова: українська
тип: програмні (м'які)
формат: *.srt

Субтитри:
мова: англійська
тип: програмні (м'які)
формат: *.srt
Info
Video
ID : 1
Format : AVC
Format/Info : Advanced Video Codec
Format profile : [email protected]
Format settings, CABAC : Yes
Format settings, ReFrames : 5 frames
Codec ID : V_MPEG4/ISO/AVC
Duration : 1h 19mn
Bit rate : 6 182 Kbps
Width : 1 920 pixels
Height : 1 040 pixels
Display aspect ratio : 1.85:1
Frame rate mode : Constant
Frame rate : 23.976 fps
Color space : YUV
Chroma subsampling : 4:2:0
Bit depth : 8 bits
Scan type : Progressive
Bits/(Pixel*Frame) : 0.129
Stream size : 3.34 GiB (73%)
Title : 9 (2009) 1080p
Writing library : core 80 r1376M 3feaec2
Encoding settings : cabac=1 / ref=5 / deblock=1:-3:-3 / analyse=0x3:0x113 / me=umh / subme=10 / psy=1 / psy_rd=0.8:0.0 / mixed_ref=1 / me_range=48 / chroma_me=1 / trellis=2 / 8x8dct=1 / cqm=0 / deadzone=21,11 / fast_pskip=0 / chroma_qp_offset=-2 / threads=12 / sliced_threads=0 / nr=0 / decimate=0 / mbaff=0 / constrained_intra=0 / bframes=5 / b_pyramid=2 / b_adapt=2 / b_bias=0 / direct=3 / wpredb=1 / wpredp=2 / keyint=250 / keyint_min=25 / scenecut=40 / rc=2pass / mbtree=0 / bitrate=6182 / ratetol=1.0 / qcomp=0.60 / qpmin=10 / qpmax=51 / qpstep=4 / cplxblur=20.0 / qblur=0.5 / ip_ratio=1.40 / pb_ratio=1.30 / aq=1:0.70
Language : English
Default : No
Forced : No
_STATISTICS_WRITING_APP : mkvmerge v7.8.0 ('River Man') 64bit built on Mar 27 2015 16:31:37
_STATISTICS_WRITING_DATE_UTC : 2015-11-28 03:13:23
_STATISTICS_TAGS : BPS DURATION NUMBER_OF_FRAMES NUMBER_OF_BYTES
DURATION : 01:19:24.173000000
NUMBER_OF_FRAMES : 114226
NUMBER_OF_BYTES : 3677733345

Audio #1
ID : 2
Format : AC-3
Format/Info : Audio Coding 3
Mode extension : CM (complete main)
Format settings, Endianness : Big
Codec ID : A_AC3
Duration : 1h 19mn
Bit rate mode : Constant
Bit rate : 384 Kbps
Channel(s) : 6 channels
Channel positions : Front: L C R, Side: L R, LFE
Sampling rate : 48.0 KHz
Bit depth : 16 bits
Compression mode : Lossy
Delay relative to video : 2s 24ms
Stream size : 218 MiB (5%)
Title : 5.1 @ 384 kbps [DVD]
Language : Ukrainian
Default : Yes
Forced : No

Audio #2
ID : 3
Format : AC-3
Format/Info : Audio Coding 3
Mode extension : CM (complete main)
Format settings, Endianness : Big
Codec ID : A_AC3
Duration : 1h 19mn
Bit rate mode : Constant
Bit rate : 192 Kbps
Channel(s) : 2 channels
Channel positions : Front: L R
Sampling rate : 48.0 KHz
Bit depth : 16 bits
Compression mode : Lossy
Stream size : 109 MiB (2%)
Title : 2.0 @ 192 kbps [NLO]
Language : Ukrainian
Default : No
Forced : No

Audio #3
ID : 4
Format :
Format/Info : Digital Theater Systems
Mode : 16
Format settings, Endianness : Big
Codec ID : A_DTS
Duration : 1h 19mn
Bit rate mode : Constant
Bit rate : 1 509 Kbps
Channel(s) : 6 channels
Channel positions : Front: L C R, Side: L R, LFE
Sampling rate : 48.0 KHz
Bit depth : 24 bits
Compression mode : Lossy
Stream size : 857 MiB (18%)
Title : 5.1 @ 1536 kbps
Language : English
Default : No
Forced : No

Text #1
ID : 5
Format : UTF-8
Codec ID : S_TEXT/UTF8
Codec ID/Info : UTF-8 Plain Text
Title : Full
Language : Ukrainian
Default : No
Forced : No

Text #2
ID : 6
Format : UTF-8
Codec ID : S_TEXT/UTF8
Codec ID/Info : UTF-8 Plain Text
Title : Full
Language : English
Default : No
Forced : No

Menu
00:00:00.000 : :1. Life Must Go On
00:04:06.913 : :2. Not Alone
00:09:51.174 : :3. Still Alive
00:12:08.436 : :4. World of Chaos
00:15:48.072 : :5. In the Watchtower
00:17:36.889 : :6. Going After 2
00:20:38.154 : :7. The Cat Beast
00:24:20.000 : :8. Awaking the Machine
00:29:07.746 : :9. Looking For Answers
00:33:38.683 : :10. Guided by Fear
00:35:48.563 : :11. The Winged Beast
00:40:03.860 : :12. Dark Science
00:44:46.183 : :13. The Seamstress
00:48:05.382 : :14. No More Hiding
00:52:49.833 : :15. They're Coming
00:55:05.427 : :16. Trapped
00:59:44.498 : :17. Back to the Source
01:03:40.567 : :18. Knowing the Truth
01:08:27.437 : :19. Free Now
01:12:16.332 : :20. End Titles
Скріншоти




Джерело:
Особиста оцінка: 10 - без зайвих вагань рекомендую всім!


 Трекер:    Зареєстрований   

Завантажити / скачати мультфільм українською



відео для новачків



 Зареєстрований:   2015-11-28 06:39
 Розмір:   4.58 GB 
 Оцінка мультфільму:   9.4/10 (Голосів: 13)
   
Інші релізи
   Справа №39 / Case 39 (2009) 720р Ukr/Eng | Sub Ukr/Eng staf777  3 / 0   7.33 GB   2016-12-29 11:18 
   1939 / Glorious 39 (2009) Gelios  13 / 0   1.44 GB   2016-09-16 07:30 
   Дев'ять / Дев’ять / 9 (2009) 2xUkr/Eng patriot2305  9 / 0   1.46 GB   2015-11-26 21:53 
   Дев’ять / 9 (2009) 720p 2xUkr/Eng | Sub Ukr/Eng 11FrYkT  6 / 0   2.97 GB   2015-11-26 21:52 
   Дев'ятий округ / Район №9 / District 9 (2009) AVC 3xUkr/Eng Yarik M  7 / 0   3.36 GB   2015-01-17 21:53 
   Дев'ятий округ / Район №9 / District 9 (2009) 3xUkr/Eng | Sub Eng karvai0  5 / 2   2.48 GB   2014-04-27 20:52 
   Справа №39 / Case 39 (2009) Ukr/Eng | Sub Eng Dark Invader  1 / 0   2.18 GB   2013-04-25 15:17 
   Дев'ятий округ / District 9 (2009) Blu-Ray 1080p Multi | Sub Multi Drool  0 / 0   40.09 GB   2013-01-18 14:00 
   Справа №39 / Case 39 (2009) AVC Ukr/Eng | Sub Eng imonko  4 / 0   2.18 GB   2012-03-03 22:48 
   Дев'ятий округ / District 9 (2009) 720p-mini Drool  2 / 0   2.13 GB   2011-12-18 22:17 
   Дев'ятий округ / District 9 (2009) 720p Ukr/Eng | Sub Ukr/Eng Бузьок  8 / 0   4.37 GB   2011-06-14 18:02 
   Дев'ятий округ / District 9 (2009) 1080p Ukr/Eng | Sub Eng SainTManiac  2 / 0   12.24 GB   2009-12-06 17:52 
deneb11 
Частий відвідувач


З нами з: 15.06.14
Востаннє: 19.08.17
Повідомлень: 31

2015-11-28 15:58  
Хто б став на роздачу, а то завантаження 0
Igor9n87 
Новенький


З нами з: 11.05.09
Востаннє: 18.08.17
Повідомлень: 10

2016-05-13 18:25  
Стаю на роздачу
Ваш часовий пояс: GMT + 2 Години

Нова тема   Відповісти