Думками навиворiт / Inside Out (2015) 3D 1080p Ukr/Eng | Sub Eng [Half OverUnder]

Нові коментарі

Нова тема   Відповісти
Автор Повідомлення
Anonymous 







2015-11-21 18:39  
Думками навиворiт / Inside Out (2015) 3D 1080p Ukr/Eng | Sub Eng
[Half OverUnder]



Жанр: анімація, пригодницький, комедія
Країна: США

Top250#66

Кінокомпанія: Pixar Animation Studios, Walt Disney Pictures
Режисери: Піт Доктер, Роналдо Дель Кармен
Ролі озвучують: Льюїс Блек, Мінді Кейлінґ, Білл Гейдер, Емі Полер, Філліс Сміт, Річард Кайнд, Кейтлін Діас, Даян Лейн, Кайл МакЛоклен, Пола Паундстон

Сюжет:
Райлі - звичайна 11-річна школярка, і, як у кожного з нас, її поведінку визначають п'ять базових емоцій: радість, страх, гнів, відраза і печаль. Емоції живуть у свідомості дівчинки і кожен день допомагають їй справлятися з проблемами, керуючи усіма її вчинками. До пори до часу емоції живуть дружно, але раптом виявляється, що Райлі і її батьків чекає переїзд з невеликого затишного містечка в галасливий і людний мегаполіс. Кожна з емоцій вважає, що саме вона краще інших знає, що потрібно робити в цій непростій ситуації, і в голові у дівчинки настає повна плутанина. Щоб налагодити життя у великому місті, освоїтися в новій школі і подружитися з однокласниками, емоціям Райлі належить знову навчитися працювати спільно.


Тривалість: 01:34:51
Якість: 3D 1080p (Rip by Ash61)
Відео:
кодек:
розмір кадру: 1920 х 1080
бітрейт: 10.1 Мб/с
тип 3D: Half OverUnder / Вертикальна стереопара

Аудіо # 1:
мова: українська
переклад: професійний дубльований
кодек: 5.1
бітрейт: 640 кб/с

Інформація про дубляж
Ролі дублювали: Наталя Денисенко, Віталіна Біблів, Назар Задніпровський, Володимир Терещук, Ігор Тимошенко, Катерина Буцька, Марія Нікітенко, Михайло Войчук, Людмила Барбір, Володимир Плахов, Кирило Нікітенко, Сергій Солопай, Дмитро Бузинський та інші.

Аудіо # 2:
мова: англійська
переклад: оригінал
кодек: 5.1
бітрейт: 640 кб/с

Субтитри # 1:
мова: англійська
тип: програмні (м'які)
формат: *.srt
Info
Код:
General
Unique ID                   : 238296170786003045703593790098086324013 (0xB3462C4FF37EE5CBB3E217DB3C50672D)
Complete name               : F:\relisss\Inside Out (2015) [Ukr,Eng] 3D 1080p [Hurtom].
Format                      :
Format version              : Version 4 / Version 2
File size                   : 7.67 GiB
Duration                    : 1h 34mn
Overall bit rate            : 11.6 Mbps
Movie name                  : Думками навиворiт / Inside Out (2015) 3D [Hurtom]
Encoded date                : UTC 2015-11-21 13:00:31
Writing application         : mkvmerge v8.4.0 ('A better way to fly') 64bit
Writing library             : libebml v1.3.1 + libmatroska v1.4.2
Attachements                : poster.jpg
DURATION                    : 01:26:59.093000000
NUMBER_OF_FRAMES            : 1378
NUMBER_OF_BYTES             : 48866
_STATISTICS_WRITING_APP     : mkvmerge v8.4.0 ('A better way to fly') 64bit
_STATISTICS_WRITING_DATE_UT : 2015-11-21 13:00:31
_STATISTICS_TAGS            : BPS DURATION NUMBER_OF_FRAMES NUMBER_OF_BYTES

Video
ID                          : 1
Format                      : AVC
Format/Info                 : Advanced Video Codec
Format profile              : [email protected]
Format settings, CABAC      : Yes
Format settings, ReFrames   : 4 frames
Codec ID                    : V_MPEG4/ISO/AVC
Duration                    : 1h 34mn
Bit rate                    : 10.1 Mbps
Width                       : 1 920 pixels
Height                      : 1 080 pixels
Display aspect ratio        : 16:9
Frame rate mode             : Constant
Frame rate                  : 23.976 fps
Color space                 : YUV
Chroma subsampling          : 4:2:0
Bit depth                   : 8 bits
Scan type                   : Progressive
Bits/(Pixel*Frame)          : 0.202
Stream size                 : 6.66 GiB (87%)
Title                       : by Ash61
Writing library             : core 146 r2538 121396c
Encoding settings           : cabac=1 / ref=4 / deblock=1:-3:-3 / analyse=0x3:0x113 / me=umh / subme=10 / psy=1 / psy_rd=1.00:0.00 / mixed_ref=1 / me_range=32 / chroma_me=1 / trellis=2 / 8x8dct=1 / cqm=0 / deadzone=21,11 / fast_pskip=1 / chroma_qp_offset=-2 / threads=12 / lookahead_threads=3 / sliced_threads=0 / nr=0 / decimate=1 / interlaced=0 / bluray_compat=0 / constrained_intra=0 / bframes=11 / b_pyramid=2 / b_adapt=2 / b_bias=0 / direct=3 / weightb=1 / open_gop=0 / weightp=2 / keyint=250 / keyint_min=23 / scenecut=40 / intra_refresh=0 / rc_lookahead=60 / rc=crf / mbtree=1 / crf=15.0 / qcomp=0.70 / qpmin=0 / qpmax=69 / qpstep=4 / vbv_maxrate=40000 / vbv_bufsize=30000 / crf_max=0.0 / nal_hrd=none / filler=0 / frame-packing=4 / ip_ratio=1.40 / aq=1:0.70
Language                    : English
Default                     : Yes
Forced                      : No
DURATION                    : 01:34:51.186000000
NUMBER_OF_FRAMES            : 136452
NUMBER_OF_BYTES             : 7317015611
_STATISTICS_WRITING_APP     : mkvmerge v8.4.0 ('A better way to fly') 64bit
_STATISTICS_WRITING_DATE_UT : 2015-11-21 13:00:31
_STATISTICS_TAGS            : BPS DURATION NUMBER_OF_FRAMES NUMBER_OF_BYTES

Audio #1
ID                          : 2
Format                      : AC-3
Format/Info                 : Audio Coding 3
Mode extension              : CM (complete main)
Format settings, Endianness : Big
Codec ID                    : A_AC3
Duration                    : 1h 34mn
Bit rate mode               : Constant
Bit rate                    : 640 Kbps
Channel(s)                  : 6 channels
Channel positions           : Front: L C R, Side: L R, LFE
Sampling rate               : 48.0 KHz
Bit depth                   : 16 bits
Compression mode            : Lossy
Stream size                 : 434 MiB (6%)
Title                       : Дубляж - BD CEE
Language                    : Ukrainian
Default                     : Yes
Forced                      : No

Audio #2
ID                          : 3
Format                      : AC-3
Format/Info                 : Audio Coding 3
Mode extension              : CM (complete main)
Format settings, Endianness : Big
Codec ID                    : A_AC3
Duration                    : 1h 34mn
Bit rate mode               : Constant
Bit rate                    : 640 Kbps
Channel(s)                  : 6 channels
Channel positions           : Front: L C R, Side: L R, LFE
Sampling rate               : 48.0 KHz
Bit depth                   : 16 bits
Compression mode            : Lossy
Stream size                 : 434 MiB (6%)
Title                       : Original - BD 3D CEE
Language                    : English
Default                     : No
Forced                      : No

Text
ID                          : 4
Format                      : UTF-8
Codec ID                    : S_TEXT/UTF8
Codec ID/Info               : UTF-8 Plain Text
Title                       : Full
Language                    : English
Default                     : No
Forced                      : No

Menu
00:00:00.000                : :1
00:07:22.692                : :2
00:11:36.778                : :3
00:15:46.403                : :4
00:20:02.241                : :5
00:25:21.435                : :6
00:26:47.063                : :7
00:30:10.182                : :8
00:34:45.791                : :9
00:36:02.284                : :10
00:37:45.304                : :11
00:41:27.358                : :12
00:43:35.612                : :13
00:45:19.507                : :14
00:46:51.849                : :15
00:50:02.456                : :16
00:51:34.340                : :17
00:56:12.159                : :18
01:00:03.682                : :19
01:01:17.840                : :20
01:03:50.367                : :21
01:06:27.190                : :22
01:11:15.770                : :23
01:13:40.539                : :24
01:15:38.658                : :25
01:20:00.336                : :26
01:23:57.198                : :27
01:26:18.338                : :28

Скріншоти





Увага!!!
Відео виконане в форматі 3D!

Рекомендується для перегляду на 3D телевізорах з пасивною технологією
Для перегляду на компютері потрібні анагліфні окуляри та стереоплеєр


Інструкції щодо перегляду відео у форматі 3D


Джерело: & Rutor


 Трекер:    Зареєстрований   

Завантажити / скачати мультфільм українською



відео для новачків



 Зареєстрований:   2015-11-22 14:21
 Розмір:   7.67 GB 
 Оцінка мультфільму:   9.3/10 (Голосів: 9)
   
Інші релізи
   Думками навиворiт / Inside Out (2015) Remux 1080p Ukr/Eng | Sub Eng staf777  4 / 0   22.55 GB   2017-02-12 06:35 
   Думками навиворiт / Inside Out (2015) AVC AngryBirdsUA  16 / 0   1.45 GB   2015-12-24 19:45 
   Думками навиворiт / Inside Out (2015) 720p Ukr/Eng | Sub Eng 11FrYkT  31 / 4   5.16 GB   2015-10-22 21:22 
   Думками навиворiт / Inside Out (2015) 1080p Ukr/Eng | Sub Eng 11FrYkT  14 / 0   8.51 GB   2015-10-22 21:20 
   Думками навиворiт / Inside Out (2015) [MP4, 640x] apvAltisimo  1 / 0   609 MB   2015-10-21 13:40 
   Думками навиворiт / Inside Out (2015) Gelios  63 / 0   1.45 GB   2015-10-20 19:02 
bot 
робот


З нами з: 30.09.07
Востаннє: 26.05.05
Повідомлень: 17363

2015-11-22 14:21  
Тему перенесено з Анонси релізів до форуму Мультфільми в HD


Andick

-VipeR- 
VIP


З нами з: 17.07.08
Востаннє: 17.08.17
Повідомлень: 289

2015-11-23 21:49  
Ну нарешті, хоч щось у 3D, вже почало складатися враження, що телик з 3D - непотрібний Happy
MagisterYODA 
Новенький


З нами з: 24.02.12
Востаннє: 17.08.17
Повідомлень: 2

2015-11-26 23:17  
Скажіть, будь ласка, а з якого саме Blu-ray наша доріжка? На російському її немає, невже десь таки є?
RomanCH 
Новенький


З нами з: 06.04.13
Востаннє: 17.08.17
Повідомлень: 8

2015-11-27 15:28  
MagisterYODA написано:
Скажіть, будь ласка, а з якого саме Blu-ray наша доріжка? На російському її немає, невже десь таки є?

Також цiкавить це питання.

Яруміл 
Новенький


З нами з: 24.11.12
Востаннє: 15.07.17
Повідомлень: 2

2015-12-03 01:00  
а чи хтось може знайти мультик "Лава"? показували його перед "думками..."
-VipeR- 
VIP


З нами з: 17.07.08
Востаннє: 17.08.17
Повідомлень: 289

2016-01-02 12:33  
MagisterYODA
мабуть з цього https://hdclub.org/details.php?id=23497

Ваш часовий пояс: GMT + 2 Години

Нова тема   Відповісти