Посіпаки / Minions (2015) 3D 1080p Ukr/Eng | Sub Ukr/Eng [Half OverUnder]

Нові коментарі

Нова тема   Відповісти
Автор Повідомлення
Anonymous 







2015-11-21 18:26  
Посіпаки / Minions (2015) 3D 1080p Ukr/Eng | Sub Ukr/Eng
[Half OverUnder]

Посіпаки / Minions (2015) 3D 1080p Ukr/Eng | Sub Ukr/Eng [Half OverUnder]


Жанр: анімація, комедія, сімейний
Країна: США



Кінокомпанія: Illumination Entertainment
Режисери: Кайл Балда / Kyle Balda та П'єр Соффін / Pierre Coffin
Ролі озвучували (в оригіналі): Сандра Баллок / Sandra Bullock, Джон Гемм / Jon Hamm, Майкл Кітон / Michael Keaton, Еллісон Дженні / Allison Janney, Стів Куґан / Steve Coogan, Дженіфер Сoндерс / Jennifer Saunders, Джефрі Раш / Geoffrey Rush, Стів Карелл / Steve Carell, П'єр Соффін / Pierre Coffin, Хіроюкі Санада / Hiroyuki Sanada та інші

Сюжет:
Виявляється, невгамовні жовті Посіпаки пройшли довгий шлях еволюції від одноклітинних істот до розумних створінь. І в усі часи вони служили лише найбільш амбітним негідникам. Відсутність господаря їх пригнічує, і у пошуках нового боса Посіпаки вирушають на всесвітню конференцію лиходіїв. Тут і починаються пригоди…


Тривалість: 01:30:58
Якість: 3D 1080p (Rip by Ash61)
Відео:
кодек:
розмір кадру: 1920 х 1080
бітрейт: 15.5 Мб/с
тип 3D: Half OverUnder / Вертикальна стереопара

Аудіо # 1:
мова: українська
переклад: професійний дубльований
кодек: 5.1
бітрейт: 640 кб/с

Аудіо # 2:
мова: англійська
переклад: оригінал
кодек: 5.1
бітрейт: 640 кб/с

Джерело озвучення:


Субтитри # 1,2:
мова: українська (форсовані, повні)
тип: програмні (м'які)
формат: *.srt

Субтитри # 3,4:
мова: англійська, англійська (SDH)
тип: програмні (м'які)
формат: *.srt
Info
Код:
General
Unique ID                   : 208510314935212484368694138051603019952 (0x9CDDA03C9A75C71F91CBBEB6092138B0)
Complete name               : F:\relisss\Minions (2015) [Ukr,Eng] 3D 1080p [Hurtom].
Format                      :
Format version              : Version 4 / Version 2
File size                   : 10.9 GiB
Duration                    : 1h 30mn
Overall bit rate            : 17.1 Mbps
Movie name                  : Посіпаки / Minions (2015) 3D [Hurtom]
Encoded date                : UTC 2015-11-21 13:18:45
Writing application         : mkvmerge v8.4.0 ('A better way to fly') 64bit
Writing library             : libebml v1.3.1 + libmatroska v1.4.2
Attachements                : poster.jpg
DURATION                    : 01:30:48.818000000
NUMBER_OF_FRAMES            : 1686
NUMBER_OF_BYTES             : 40609
_STATISTICS_WRITING_APP     : mkvmerge v8.4.0 ('A better way to fly') 64bit
_STATISTICS_WRITING_DATE_UT : 2015-11-21 13:18:45
_STATISTICS_TAGS            : BPS DURATION NUMBER_OF_FRAMES NUMBER_OF_BYTES

Video
ID                          : 1
Format                      : AVC
Format/Info                 : Advanced Video Codec
Format profile              : [email protected]
Format settings, CABAC      : Yes
Format settings, ReFrames   : 4 frames
Codec ID                    : V_MPEG4/ISO/AVC
Duration                    : 1h 30mn
Bit rate                    : 15.5 Mbps
Width                       : 1 920 pixels
Height                      : 1 080 pixels
Display aspect ratio        : 16:9
Frame rate mode             : Constant
Frame rate                  : 23.976 fps
Color space                 : YUV
Chroma subsampling          : 4:2:0
Bit depth                   : 8 bits
Scan type                   : Progressive
Bits/(Pixel*Frame)          : 0.312
Stream size                 : 9.86 GiB (91%)
Title                       : by Ash61
Writing library             : core 146 r2538 121396c
Encoding settings           : cabac=1 / ref=4 / deblock=1:-3:-3 / analyse=0x3:0x113 / me=umh / subme=10 / psy=1 / psy_rd=1.00:0.00 / mixed_ref=1 / me_range=32 / chroma_me=1 / trellis=2 / 8x8dct=1 / cqm=0 / deadzone=21,11 / fast_pskip=1 / chroma_qp_offset=-2 / threads=12 / lookahead_threads=3 / sliced_threads=0 / nr=0 / decimate=1 / interlaced=0 / bluray_compat=0 / constrained_intra=0 / bframes=10 / b_pyramid=2 / b_adapt=2 / b_bias=0 / direct=3 / weightb=1 / open_gop=0 / weightp=2 / keyint=250 / keyint_min=23 / scenecut=40 / intra_refresh=0 / rc_lookahead=60 / rc=crf / mbtree=1 / crf=16.0 / qcomp=0.70 / qpmin=0 / qpmax=69 / qpstep=4 / vbv_maxrate=40000 / vbv_bufsize=30000 / crf_max=0.0 / nal_hrd=none / filler=0 / frame-packing=4 / ip_ratio=1.40 / aq=1:0.70
Language                    : English
Default                     : Yes
Forced                      : No
DURATION                    : 01:30:58.036000000
NUMBER_OF_FRAMES            : 130862
NUMBER_OF_BYTES             : 10813991063
_STATISTICS_WRITING_APP     : mkvmerge v8.4.0 ('A better way to fly') 64bit
_STATISTICS_WRITING_DATE_UT : 2015-11-21 13:18:45
_STATISTICS_TAGS            : BPS DURATION NUMBER_OF_FRAMES NUMBER_OF_BYTES

Audio #1
ID                          : 2
Format                      : AC-3
Format/Info                 : Audio Coding 3
Mode extension              : CM (complete main)
Format settings, Endianness : Big
Codec ID                    : A_AC3
Duration                    : 1h 30mn
Bit rate mode               : Constant
Bit rate                    : 640 Kbps
Channel(s)                  : 6 channels
Channel positions           : Front: L C R, Side: L R, LFE
Sampling rate               : 48.0 KHz
Bit depth                   : 16 bits
Compression mode            : Lossy
Stream size                 : 416 MiB (4%)
Title                       : Дубляж - BD Eur
Language                    : Ukrainian
Default                     : Yes
Forced                      : No

Audio #2
ID                          : 3
Format                      : AC-3
Format/Info                 : Audio Coding 3
Mode extension              : CM (complete main)
Format settings, Endianness : Big
Codec ID                    : A_AC3
Duration                    : 1h 30mn
Bit rate mode               : Constant
Bit rate                    : 640 Kbps
Channel(s)                  : 6 channels
Channel positions           : Front: L C R, Side: L R, LFE
Sampling rate               : 48.0 KHz
Bit depth                   : 16 bits
Compression mode            : Lossy
Stream size                 : 416 MiB (4%)
Title                       : Original - BD 3D
Language                    : English
Default                     : No
Forced                      : No

Text #1
ID                          : 4
Format                      : UTF-8
Codec ID                    : S_TEXT/UTF8
Codec ID/Info               : UTF-8 Plain Text
Title                       : Форсовані
Language                    : Ukrainian
Default                     : Yes
Forced                      : No

Text #2
ID                          : 5
Format                      : UTF-8
Codec ID                    : S_TEXT/UTF8
Codec ID/Info               : UTF-8 Plain Text
Title                       : Повні
Language                    : Ukrainian
Default                     : No
Forced                      : No

Text #3
ID                          : 6
Format                      : UTF-8
Codec ID                    : S_TEXT/UTF8
Codec ID/Info               : UTF-8 Plain Text
Title                       : Full
Language                    : English
Default                     : No
Forced                      : No

Text #4
ID                          : 7
Format                      : UTF-8
Codec ID                    : S_TEXT/UTF8
Codec ID/Info               : UTF-8 Plain Text
Title                       : SDH
Language                    : English
Default                     : No
Forced                      : No

Menu
00:00:00.000                : :1
00:05:39.838                : :2
00:11:28.937                : :3
00:16:55.139                : :4
00:22:28.430                : :5
00:26:59.034                : :6
00:32:54.638                : :7
00:37:28.871                : :8
00:40:58.831                : :9
00:45:29.309                : :10
00:49:24.085                : :11
00:53:43.052                : :12
00:57:04.920                : :13
01:01:36.943                : :14
01:05:54.699                : :15
01:07:55.237                : :16
01:11:19.149                : :17
01:15:32.653                : :18
01:21:12.826                : :19
01:28:24.756                : :20

Скріншоти





Увага!!!
Відео виконане в форматі 3D!

Рекомендується для перегляду на 3D телевізорах з пасивною технологією
Для перегляду на компютері потрібні анагліфні окуляри та стереоплеєр


Інструкції щодо перегляду відео у форматі 3D


Джерело: & Rutor


 Трекер:    Зареєстрований   

Завантажити / скачати мультфільм українською



відео для новачків



 Зареєстрований:   2015-11-22 09:23
 Розмір:   10.89 GB 
 Оцінка мультфільму:   9.8/10 (Голосів: 12)
   
Інші релізи
   Посіпаки / Minions (2015) AVC Ukr/Eng | Sub Ukr/Eng AngryBirdsUA  18 / 1   2.18 GB   2015-11-20 22:02 
   Посіпаки / Minions (2015) 720p-mini (60 fps) Drool  2 / 0   5.48 GB   2015-11-19 10:04 
   Посіпаки / Minions (2015) 720p Ukr/Eng | Sub Ukr/Eng Drool  13 / 0   3.8 GB   2015-11-19 10:00 
   Посіпаки / Minions (2015) patriot2305  44 / 0   1.45 GB   2015-11-15 14:42 
   Посіпаки / Minions (2015) 1080p Ukr/Eng | Sub Ukr/Eng 11FrYkT  21 / 0   8.26 GB   2015-11-15 10:23 
[Captain] 
VIP


З нами з: 19.02.12
Востаннє: 22.08.17
Повідомлень: 1728

2015-11-21 20:21  
Фільм Юнівєрсал з озвучкою з блю-рей?? Це мені сниться??
Anonymous 







2015-11-21 23:26  
[Captain] написано:
Фільм Юнівєрсал з озвучкою з блю-рей?? Це мені сниться??
сам в шоці
-VipeR- 
VIP


З нами з: 17.07.08
Востаннє: 22.08.17
Повідомлень: 289

2015-11-23 21:51  
Дуже, дуже вдячний!
ma_kk 
Новенький


З нами з: 03.07.17
Востаннє: 29.07.17
Повідомлень: 1

2017-07-03 18:57  
Че за фигня ?? нельзя было написать что ДЫБИЛЬНОЕ оформление ??
Ваш часовий пояс: GMT + 2 Години

Нова тема   Відповісти