Посіпаки / Minions (2015) 720p-mini (60 fps)

Нові коментарі

Нова тема   Відповісти
Автор Повідомлення
Drool 
VIP


З нами з: 17.04.10
Востаннє: 23.08.17
Повідомлень: 1376

2015-11-13 09:21  
Посіпаки / Minions (2015) 720p-mini (60 fps)

Жанр: анімація, комедія, сімейний
Країна: США



Кінокомпанія: Illumination Entertainment
Режисер: Кайл Балда
Актори: Сандра Баллок, Джон Гемм, Майкл Кітон, Еллісон Дженні, Стів Куґан, Дженіфер Сoндерс, Джефрі Раш, Стів Карелл, П'єр Соффін, Хіроюкі Санада та інші

Сюжет:
Виявляється, невгамовні жовті Посіпаки пройшли довгий шлях еволюції від одноклітинних істот до розумних створінь. І в усі часи вони служили лише найбільш амбітним негідникам. Відсутність господаря їх пригнічує, і у пошуках нового боса Посіпаки вирушають на всесвітню конференцію лиходіїв. Тут і починаються пригоди…


Тривалість: 01:30:57
Якість: 720p-mini
Відео:
кодек:
розмір кадру: 1280x696
бітрейт: 7984 кб/с
кадрів на секунду: 59.940 к/с

Аудіо:
мова: українська
переклад: професійний дубльований
кодек: 5.1
бітрейт: 640 кб/с

Субтитри:
мова: українська (форсовані)
тип: програмні (м'які)
формат: *.srt
Info
General
Unique ID : 286093495747407068850438115185571000657 (0xD73B9A6087C1328717C516794231F151)
Complete name : /mnt/disk_d/Video/Minions.2015.Ukr.Dub..720p-mini.60fps.
Format :
Format version : Version 4 / Version 2
File size : 5.48 GiB
Duration : 1h 30mn
Overall bit rate : 8 627 Kbps
Movie name : Посіпаки / Minions (2015) 720p-mini [60 fps] R.G. HD-Films
Encoded date : UTC 2015-11-19 06:45:17
Writing application : mkvmerge v8.5.0 ('Vanishing Act') 64bit
Writing library : libebml v1.3.1 + libmatroska v1.4.2
DURATION : 01:07:39.597000000
NUMBER_OF_FRAMES : 39
NUMBER_OF_BYTES : 1524
_STATISTICS_WRITING_APP : mkvmerge v8.5.0 ('Vanishing Act') 64bit
_STATISTICS_WRITING_DATE_UTC : 2015-11-19 06:45:17
_STATISTICS_TAGS : BPS DURATION NUMBER_OF_FRAMES NUMBER_OF_BYTES

Video
ID : 1
Format : AVC
Format/Info : Advanced Video Codec
Format profile : [email protected]
Format settings, CABAC : Yes
Format settings, ReFrames : 4 frames
Codec ID : V_MPEG4/ISO/AVC
Duration : 1h 30mn
Bit rate : 7 984 Kbps
Width : 1 280 pixels
Height : 696 pixels
Display aspect ratio : 1.85:1
Frame rate mode : Constant
Frame rate : 59.880 fps
Original frame rate : 59.940 fps
Color space : YUV
Chroma subsampling : 4:2:0
Bit depth : 8 bits
Scan type : Progressive
Bits/(Pixel*Frame) : 0.150
Stream size : 4.97 GiB (91%)
Title : Посіпаки / Minions (2015) 720p-mini [60 fps] R.G. HD-Films
Writing library : core 146 r2538 121396c
Encoding settings : cabac=1 / ref=4 / deblock=1:0:0 / analyse=0x3:0x113 / me=umh / subme=11 / psy=1 / psy_rd=1.00:0.00 / mixed_ref=1 / me_range=24 / chroma_me=1 / trellis=2 / 8x8dct=1 / cqm=0 / deadzone=21,11 / fast_pskip=1 / chroma_qp_offset=-2 / threads=12 / lookahead_threads=3 / sliced_threads=0 / nr=0 / decimate=1 / interlaced=0 / bluray_compat=0 / constrained_intra=0 / bframes=16 / b_pyramid=2 / b_adapt=2 / b_bias=0 / direct=1 / weightb=1 / open_gop=0 / weightp=2 / keyint=250 / keyint_min=25 / scenecut=40 / intra_refresh=0 / rc=2pass / mbtree=0 / bitrate=7984 / ratetol=1.0 / qcomp=0.60 / qpmin=0 / qpmax=69 / qpstep=4 / cplxblur=20.0 / qblur=0.5 / ip_ratio=1.40 / pb_ratio=1.30 / aq=1:1.00
Default : Yes
Forced : Yes
DURATION : 01:30:57.919000000
NUMBER_OF_FRAMES : 327148
NUMBER_OF_BYTES : 5446200333
_STATISTICS_WRITING_APP : mkvmerge v8.5.0 ('Vanishing Act') 64bit
_STATISTICS_WRITING_DATE_UTC : 2015-11-19 06:45:17
_STATISTICS_TAGS : BPS DURATION NUMBER_OF_FRAMES NUMBER_OF_BYTES

Audio
ID : 2
Format : AC-3
Format/Info : Audio Coding 3
Mode extension : CM (complete main)
Format settings, Endianness : Big
Codec ID : A_AC3
Duration : 1h 30mn
Bit rate mode : Constant
Bit rate : 640 Kbps
Channel(s) : 6 channels
Channel positions : Front: L C R, Side: L R, LFE
Sampling rate : 48.0 KHz
Compression mode : Lossy
Stream size : 416 MiB (7%)
Title : Рідна мова | 5.1 @ 640 kbps
Language : Ukrainian
Default : Yes
Forced : Yes

Text
ID : 3
Format : UTF-8
Codec ID : S_TEXT/UTF8
Codec ID/Info : UTF-8 Plain Text
Title : Українські (форсовані)
Language : Ukrainian
Default : Yes
Forced : Yes
Скріншоти





Джерело: by
Особиста оцінка: 8 - мені сподобалося


 Трекер:    Зареєстрований   

Завантажити / скачати мультфільм українською



відео для новачків



 Зареєстрований:   2015-11-19 10:04
 Розмір:   5.48 GB 
 Оцінка мультфільму:   9.7/10 (Голосів: 10)
   
Інші релізи
   Посіпаки / Minions (2015) 3D 1080p Ukr/Eng | Sub Ukr/Eng [Half OverUnder] Andick  2 / 0   10.89 GB   2015-11-22 09:23 
   Посіпаки / Minions (2015) AVC Ukr/Eng | Sub Ukr/Eng AngryBirdsUA  17 / 0   2.18 GB   2015-11-20 22:02 
   Посіпаки / Minions (2015) 720p Ukr/Eng | Sub Ukr/Eng Drool  18 / 0   3.8 GB   2015-11-19 10:00 
   Посіпаки / Minions (2015) patriot2305  34 / 0   1.45 GB   2015-11-15 14:42 
   Посіпаки / Minions (2015) 1080p Ukr/Eng | Sub Ukr/Eng 11FrYkT  16 / 0   8.26 GB   2015-11-15 10:23 
Drool 
VIP


З нами з: 17.04.10
Востаннє: 23.08.17
Повідомлень: 1376

2015-11-19 15:51  
Ліцензійна українська доріжка! За що подяка пану 11FrYkT.
-VJ- 
VIP


З нами з: 01.11.09
Востаннє: 22.08.17
Повідомлень: 614

2015-11-20 23:10  
Цікаво, чому тут 60-тикадрових 22 релізи в 720 і тільки 6 - в 1080? Тільки через об'єм?
Drool 
VIP


З нами з: 17.04.10
Востаннє: 23.08.17
Повідомлень: 1376

2015-11-21 17:01  
-VJ- написано:
Цікаво, чому тут 60-тикадрових 22 релізи в 720 і тільки 6 - в 1080? Тільки через об'єм?
Через об'єм та більше навантаження при кодуванні в 1080p, ніж 720p.
Versus 
Свій


З нами з: 02.02.08
Востаннє: 20.08.17
Повідомлень: 64

2015-12-20 16:01  
трохи нуднуватий мульт, особливо після середини
Ваш часовий пояс: GMT + 2 Години

Нова тема   Відповісти