Острови (6 випусків) / Island Stories (6 episodes) (2015) 1080p

Нові коментарі

Нова тема   Відповісти
Автор Повідомлення
havryk 
VIP


З нами з: 29.06.10
Востаннє: 23.08.17
Повідомлень: 641

2015-11-04 16:13  
Острови (6 випусків) / Island Stories (6 episodes) (2015) 1080p

Острови (6 випусків) / Island Stories (6 episodes) (2015) 1080p


Жанр: документальний
Країна: Велика Британія

Телеканал:
Сюжет: Шість історій у циклі програм BBC World про шість островів - в Україні, Уганді, Мозамбіку, Індонезії та про Канарські острови.

Тривалість: 6 x ~4 хв.
Перелік випусків
    1 - Хортиця | Перша програма про острів Хортиця на Дніпрі. Протягом століть Хортиця в самому серці Запоріжжя була духовним прихистком для багатьох українців, одним із символів української тотожності. Це також один із островів, де зароджувалась національна гордість – запорізькі козаки.
    2 - Бугала | Наступний острів, на який ми вирушаємо, розташований в Уганді. На перший погляд може здатися, що Бугала лежить посеред океану. Озеро Вікторія настільки величезне, що острови буквально губляться в ньому.
    3 - Ієрро | Наступний острів, на який ми вирушаємо, розташований в Іспанії. Європейці колись називали Ієрро краєм світу. Ієрро - найменший і найвіддаленіший острів Канарського архіпелагу. Сюди рідко потрапляють туристи.
    4 - Олд-Провіденс | Наступний зупинка - колумбійський острів Олд-Провіденс. Це місце, де час спливає повільно. Ніхто нікуди не поспішає, а кожен день схожий на ледачий вихідний.
    5 - Анжуан | Наступний зупинка - острів Анжуан, що причаївся поблизу Мозамбіку. Це місце де шанують стародавні традиції, де від гірських краєвидів перехоплює подих, а повітря сповнене п'янким ароматом іланг-ілангу.
    6 - Буру | Життя людей на індонезійському острові Буру радикально змінилося після того, як одній жінці наснився дивний сон про скарби, що приховує ця земля.
Якість:
Відео:
кодек: AVC
розмір кадру: 1920 х 1080
бітрейт: ~3500 кб/с

Аудіо:
мова: українська
переклад: оригінал (1 випуск), багатоголосий закадровий (2-6 випуски)
кодек: 2.0
бітрейт: 126 кб/с
Info
Код:
Complete name               : EE1 - Khortytsia, Ukraine (2015) 1080p [Hurtom].mp4
Format                      : MPEG-4
Format profile              : Base Media
Codec ID                    : isom
File size                   : 97.0 MiB
Duration                    : 3mn 57s
Overall bit rate            : 3 425 Kbps
Writing application         : Lavf56.25.101

Video
ID                          : 1
Format                      : AVC
Format/Info                 : Advanced Video Codec
Format profile              : [email protected]
Format settings, CABAC      : Yes
Format settings, ReFrames   : 2 frames
Codec ID                    : avc1
Codec ID/Info               : Advanced Video Coding
Duration                    : 3mn 57s
Bit rate                    : 3 294 Kbps
Width                       : 1 920 pixels
Height                      : 1 080 pixels
Display aspect ratio        : 16:9
Frame rate mode             : Constant
Frame rate                  : 25.000 fps
Color space                 : YUV
Chroma subsampling          : 4:2:0
Bit depth                   : 8 bits
Scan type                   : Progressive
Bits/(Pixel*Frame)          : 0.064
Stream size                 : 93.2 MiB (96%)

Audio
ID                          : 2
Format                      :
Format/Info                 : Advanced Audio Codec
Format profile              : LC
Codec ID                    : 40
Duration                    : 3mn 57s
Bit rate mode               : Constant
Bit rate                    : 126 Kbps
Channel(s)                  : 2 channels
Channel positions           : Front: L R
Sampling rate               : 44.1 KHz
Compression mode            : Lossy
Stream size                 : 3.55 MiB (4%)


Джерело:


Бронзовий реліз (на рейтинг впливає 75% завантаженого)
 Трекер:    Зареєстрований   

Завантажити / скачати фільм українською



відео для новачків



 Зареєстрований:   2015-11-04 16:13
 Розмір:   611 MB 
 Оцінка фільму:   9.3/10 (Голосів: 20)
   
Ua.bos_01 
VIP


З нами з: 22.06.15
Востаннє: 13.08.17
Повідомлень: 1397

2016-01-28 16:41  
Цікавий спектр програми. Шкода, що такі короткі епізоди. Хоча звісно у них інша мета, ніж документальна. Сподобалось, особливо звісно про острів Хортиця. Ражу до перегляду.
Ваш часовий пояс: GMT + 2 Години

Нова тема   Відповісти