Історія іграшок: Відпочинок на Гаваях / Toy Story: Hawaiian Vacation (2011) 720p Ukr/Eng | Sub Ukr/Eng

Нові коментарі

Нова тема   Відповісти
Автор Повідомлення
leroykendall 
Модератор HD


З нами з: 03.01.11
Востаннє: 20.08.17
Повідомлень: 750

2015-11-03 23:54  
Історія іграшок: Відпочинок на Гаваях / Toy Story: Hawaiian Vacation (2011)
720p Ukr/Eng | Sub Ukr/Eng



Жанр: анімація, сімейний, комедія
Країна: США



Кіностудія / кінокомпанія: Pixar, Walt Disney Pictures
Режисер: Гарі Рідстром / Gary Rydstrom

Сюжет:
Короткометражний мультфільм від студії Pixar з улюбленими персонажами мультфільму Історія іграшок.
На цей раз іграшки Кен і Барбі, дуже розчаровані тим, що не потрапили разом з їх юною господинею на Гаваї,
вирішують влаштувати собі гавайські канікули прямо в дитячій спальні. На допомогу їм приходять інші іграшки, але чи вдасться їм здійснити задумане?


Тривалість: 00:05:53
Якість: 720p (EbP)
Відео:
кодек:
розмір кадру: 1280 x 720
бітрейт: 4048 кб/с

Аудіо # 1:
мова: українська
переклад: професійний дубльований
кодек: 5.1
бітрейт: 640 кб/с
Про озвучення

Вуді - Володимир Терещук
Базз Рятівник - Олексій Богданович
Кен - Віталій Козловський
Барбі - Інна Цимбалюк
Джессі - Катерина Брайковька
Тріксі - Марина Кукліна
Рекс - Максим Кондратюк
Ріжок - Олександр Бондаренко
Колю-Капелюх - Олег Лепенець
Прибульці - Константин Єфимов
Жартик - Сергій Юрченко
Аудіо # 2:
мова: англійська
переклад: оригінал
кодек: 5.1
бітрейт: 1509 кб/с

Джерело озвучення:


Субтитри:
мова: українська (Full, Forced)
тип: програмні (м'які)
формат: *.srt

Субтитри:
мова: англійська (Full, Hearing Impaired, Forced)
тип: програмні (м'які)
формат: *.srt
Info
Код:
General
Unique ID                        : 221082996375535592221266703532203615314 (0xA653094A657E5414ADD25355B3AAA452)
Complete name                    : Toy Story Hawaiian Vacation (2011) [Ukr, Eng] 720p [Hurtom] by leroykendall.
Format                           :
Format version                   : Version 2
File size                        : 368 MiB
Duration                         : 5mn 53s
Overall bit rate mode            : Variable
Overall bit rate                 : 8 722 Kbps
Encoded date                     : UTC 2011-11-23 03:29:26
Writing application              : mkvmerge v5.0.1 ('Es ist Sommer') built on Oct  9 2011 11:55:43
Writing library                  : libebml v1.2.2 + libmatroska v1.3.0

Video
ID                               : 1
Format                           : AVC
Format/Info                      : Advanced Video Codec
Format profile                   : [email protected]
Format settings, CABAC           : Yes
Format settings, ReFrames        : 9 frames
Codec ID                         : V_MPEG4/ISO/AVC
Duration                         : 5mn 53s
Bit rate                         : 5 474 Kbps
Width                            : 1 280 pixels
Height                           : 720 pixels
Display aspect ratio             : 16:9
Frame rate                       : 23.976 fps
Color space                      : YUV
Chroma subsampling               : 4:2:0
Bit depth                        : 8 bits
Scan type                        : Progressive
Bits/(Pixel*Frame)               : 0.248
Stream size                      : 231 MiB (63%)
Title                            : Toy Story  Hawaiian Vacation
Writing library                  : core 119 r2106 07efeb4
Encoding settings                : cabac=1 / ref=9 / deblock=1:-3:-3 / analyse=0x3:0x113 / me=tesa / subme=11 / psy=1 / psy_rd=0.80:0.00 / mixed_ref=1 / me_range=16 / chroma_me=1 / trellis=2 / 8x8dct=1 / cqm=0 / deadzone=21,11 / fast_pskip=0 / chroma_qp_offset=-2 / threads=12 / sliced_threads=0 / nr=0 / decimate=0 / interlaced=0 / bluray_compat=0 / constrained_intra=0 / bframes=6 / b_pyramid=2 / b_adapt=2 / b_bias=0 / direct=3 / weightb=1 / open_gop=0 / weightp=2 / keyint=250 / keyint_min=23 / scenecut=40 / intra_refresh=0 / rc=crf / mbtree=0 / crf=16.0 / qcomp=0.60 / qpmin=0 / qpmax=69 / qpstep=4 / ip_ratio=1.40 / pb_ratio=1.30 / aq=1:1.00
Default                          : Yes
Forced                           : No
Matrix coefficients              : BT.709-5, BT.1361, IEC 61966-2-4 709, SMPTE RP177

Audio #1
ID                               : 2
Format                           : AC-3
Format/Info                      : Audio Coding 3
Mode extension                   : CM (complete main)
Codec ID                         : A_AC3
Duration                         : 5mn 53s
Bit rate mode                    : Constant
Bit rate                         : 640 Kbps
Channel(s)                       : 6 channels
Channel positions                : Front: L C R, Side: L R, LFE
Sampling rate                    : 48.0 KHz
Bit depth                        : 16 bits
Compression mode                 : Lossy
Stream size                      : 27.0 MiB (7%)
Title                            : 5.1 - 640 kbps
Language                         : Ukrainian
Default                          : Yes
Forced                           : No

Audio #2
ID                               : 3
Format                           :
Format/Info                      : Digital Theater Systems
Format profile                   : MA / Core
Codec ID                         : A_DTS
Duration                         : 5mn 53s
Bit rate mode                    : Variable
Bit rate                         : 2 434 Kbps / 1 510 Kbps
Channel(s)                       : 6 channels
Channel positions                : Front: L C R, Side: L R, LFE
Sampling rate                    : 48.0 KHz
Bit depth                        : 24 bits
Compression mode                 : Lossless / Lossy
Title                            : 5.1-ES - 1509 kbps
Language                         : English
Default                          : No
Forced                           : No

Text #1
ID                               : 4
Format                           : UTF-8
Codec ID                         : S_TEXT/UTF8
Codec ID/Info                    : UTF-8 Plain Text
Title                            : Full
Language                         : Ukrainian
Default                          : No
Forced                           : No

Text #2
ID                               : 5
Format                           : UTF-8
Codec ID                         : S_TEXT/UTF8
Codec ID/Info                    : UTF-8 Plain Text
Title                            : Forced
Language                         : Ukrainian
Default                          : Yes
Forced                           : No

Text #3
ID                               : 6
Format                           : UTF-8
Codec ID                         : S_TEXT/UTF8
Codec ID/Info                    : UTF-8 Plain Text
Title                            : Full
Language                         : English
Default                          : No
Forced                           : No

Text #4
ID                               : 7
Format                           : UTF-8
Codec ID                         : S_TEXT/UTF8
Codec ID/Info                    : UTF-8 Plain Text
Title                            : Hearing Impaired
Language                         : English
Default                          : No
Forced                           : No

Text #5
ID                               : 8
Format                           : UTF-8
Codec ID                         : S_TEXT/UTF8
Codec ID/Info                    : UTF-8 Plain Text
Title                            : Forced
Language                         : English
Default                          : No
Forced                           : No
Скріншоти:










 Трекер:    Зареєстрований   

Завантажити / скачати мультфільм українською



відео для новачків



 Зареєстрований:   2015-11-03 23:54
 Розмір:   368 MB 
 Оцінка мультфільму:   10/10 (Голосів: 8)
   
igor911 
Відео Гуртом
Відео Гуртом


З нами з: 18.01.08
Востаннє: 22.08.17
Повідомлень: 7321

2015-11-04 00:35  
Що за фігня з релізом у смітнику? https://toloka.to/t30082
leroykendall 
Модератор HD


З нами з: 03.01.11
Востаннє: 20.08.17
Повідомлень: 750

2015-11-04 07:57  
igor911
Написав в приват.

Ваш часовий пояс: GMT + 2 Години

Нова тема   Відповісти