Історія іграшок: Загублені в часі / Toy Story That Time Forgot (2014) 720p Ukr/Eng | Sub Eng

Нові коментарі

Нова тема   Відповісти
Автор Повідомлення
bogdan8249 
Відео Гуртом - фільмокрай
Відео Гуртом - фільмокрай


З нами з: 09.08.08
Востаннє: 27.01.21
Повідомлень: 1237

2015-10-21 17:15  
Історія іграшок: Загублені в часі / Toy Story That Time Forgot (2014) 720p Ukr/Eng | Sub Eng

Історія іграшок: Загублені в часі / Toy Story That Time Forgot (2014) 720p Ukr/Eng | Sub Eng

Жанр: анімація, дитячий, сімейний
Країна: США



Кінокомпанія: Pixar Animation Studios
Режисер: Стів Пурселл
Актори: Емілі Хан, Воллес Шоун, Стів Пурселл, Джонатан Кідд, Дон Ріклз, Лорі Алан, Тім Аллен, Рон Боттітта, Джоан Кьюсак, Тімоті Далтон

Сюжет:
От і минули різдвяні свята, й наші старі друзі потрапляють до чужого будинку, де мають протистояти агресивним і небезпечним іграшкам-динозаврам.


Тривалість: 00:21:28
Якість:
Відео:
кодек:
розмір кадру: 1280 х 720
бітрейт: 3507 кб/с

Аудіо # 1:
мова: українська
переклад: професійний дубльований
кодек: 2.0
бітрейт: 198 кб/с

Аудіо # 2:
мова: англійська
переклад: оригінал
кодек: 5.1
бітрейт: 384 кб/с

Субтитри:
мова: англійська
тип: програмні (м'які)
формат: *.srt
Info
Format :
Format version : Version 4 / Version 2
File size : 640 MiB
Duration : 21mn 28s
Overall bit rate : 4 166 Kbps
Movie name : Toy Story: That Time Forgot.2014. 720p -Azureus-
Encoded date : UTC 2015-10-21 15:02:54
Writing application : v8.5.0 ('Vanishing Act') 64bit
Writing library : libebml v1.3.1 + v1.4.2
DURATION : 00:21:07.265000000
NUMBER_OF_FRAMES : 388
NUMBER_OF_BYTES : 9818
_STATISTICS_WRITING_APP : v8.5.0 ('Vanishing Act') 64bit
_STATISTICS_WRITING_DATE_UT : 2015-10-21 15:02:54
_STATISTICS_TAGS : BPS DURATION NUMBER_OF_FRAMES NUMBER_OF_BYTES

Video
ID : 1
Format : AVC
Format/Info : Advanced Video Codec
Format profile : [email protected]
Format settings, CABAC : Yes
Format settings, ReFrames : 5 frames
Codec ID : V_MPEG4/ISO/AVC
Duration : 21mn 28s
Bit rate : 3 507 Kbps
Width : 1 280 pixels
Height : 720 pixels
Display aspect ratio : 16:9
Frame rate mode : Constant
Frame rate : 23.976 fps
Color space : YUV
Chroma subsampling : 4:2:0
Bit depth : 8 bits
Scan type : Progressive
Bits/(Pixel*Frame) : 0.159
Stream size : 539 MiB (84%)
Writing library : core 142 r2479 dd79a61
Encoding settings : cabac=1 / ref=5 / deblock=1:0:0 / analyse=0x3:0x113 / me=umh / subme=8 / psy=1 / psy_rd=1.00:0.00 / mixed_ref=1 / me_range=16 / chroma_me=1 / trellis=1 / 8x8dct=1 / cqm=0 / deadzone=21,11 / fast_pskip=1 / chroma_qp_offset=-2 / threads=18 / lookahead_threads=4 / sliced_threads=0 / nr=0 / decimate=1 / interlaced=0 / bluray_compat=0 / constrained_intra=0 / bframes=5 / b_pyramid=2 / b_adapt=2 / b_bias=0 / direct=3 / weightb=1 / open_gop=0 / weightp=2 / keyint=250 / keyint_min=23 / scenecut=40 / intra_refresh=0 / rc_lookahead=50 / rc=crf / mbtree=1 / crf=18.0 / qcomp=0.60 / qpmin=0 / qpmax=69 / qpstep=4 / ip_ratio=1.40 / aq=1:1.00
Language : English
Default : Yes
Forced : No
DURATION : 00:21:28.453000000
NUMBER_OF_FRAMES : 30892
NUMBER_OF_BYTES : 577833843
_STATISTICS_WRITING_APP : v8.5.0 ('Vanishing Act') 64bit
_STATISTICS_WRITING_DATE_UT : 2015-10-21 15:02:54
_STATISTICS_TAGS : BPS DURATION NUMBER_OF_FRAMES NUMBER_OF_BYTES

Audio #1
ID : 2
Format : AC-3
Format/Info : Audio Coding 3
Mode extension : CM (complete main)
Format settings, Endianness : Big
Codec ID : A_AC3
Duration : 21mn 28s
Bit rate mode : Constant
Bit rate : 192 Kbps
Channel(s) : 2 channels
Channel positions : Front: L R
Sampling rate : 48.0 KHz
Compression mode : Lossy
Delay relative to video : -83ms
Stream size : 29.5 MiB (5%)
Title : UKR
Language : Ukrainian
Default : No
Forced : No

Audio #2
ID : 3
Format : AC-3
Format/Info : Audio Coding 3
Mode extension : CM (complete main)
Format settings, Endianness : Big
Codec ID : A_AC3
Duration : 21mn 28s
Bit rate mode : Constant
Bit rate : 384 Kbps
Channel(s) : 6 channels
Channel positions : Front: L C R, Side: L R, LFE
Sampling rate : 48.0 KHz
Compression mode : Lossy
Delay relative to video : -83ms
Stream size : 59.0 MiB (9%)
Title : ENG
Language : English
Default : No
Forced : No

Text
ID : 4
Format : UTF-8
Codec ID : S_TEXT/UTF8
Codec ID/Info : UTF-8 Plain Text
Title : Eng Sub
Language : English
Default : No
Forced : No
Скріншоти




Джерело:
Особиста оцінка: 10 - без зайвих вагань рекомендую всім!


 Трекер:    Зареєстрований   

Завантажити / скачати фільм українською



відео для новачків



 Зареєстрований:   2015-10-21 17:15
 Розмір:   640 MB 
 Оцінка фільму:   9.9/10 (Голосів: 33)
   
DDBj 
VIP


З нами з: 09.01.12
Востаннє: 28.01.21
Повідомлень: 767

2015-10-21 18:50  
"Історія іграшок: Те, що забуто"

Офіційна назва, ніби, інакша.

igor911 
Модератор відео


З нами з: 18.01.08
Востаннє: 28.01.21
Повідомлень: 15398

2015-10-21 22:08  
bogdan8249, назва має бути "Історія іграшок: Загублені в часі / Toy Story That Time Forgot (2014) 720p Ukr/Eng | Sub Eng"

Додано через 7 хвилин 13 секунд:

За два тижні виходить блурей цього мульта

bogdan8249 
Відео Гуртом - фільмокрай
Відео Гуртом - фільмокрай


З нами з: 09.08.08
Востаннє: 27.01.21
Повідомлень: 1237

2015-10-21 23:11  
Цитата:
bogdan8249, назва має бути "Історія іграшок: Загублені в часі / Toy Story That Time Forgot (2014) 720p Ukr/Eng | Sub Eng"

Дійсно. Забув про субтитри.

igor911 
Модератор відео


З нами з: 18.01.08
Востаннє: 28.01.21
Повідомлень: 15398

2015-10-21 23:15  
bogdan8249, прибери одну ":" та "-AVC" з назви.

Додано через 2 хвилини 20 секунд:

згідно ІМДБ ориг.назва "Toy Story That Time Forgot", без ":".

bogdan8249 
Відео Гуртом - фільмокрай
Відео Гуртом - фільмокрай


З нами з: 09.08.08
Востаннє: 27.01.21
Повідомлень: 1237

2015-10-21 23:25  
Цитата:
bogdan8249, прибери одну ":" та "-AVC" з назви.

А чому без AVC?

igor911 
Модератор відео


З нами з: 18.01.08
Востаннє: 28.01.21
Повідомлень: 15398

2015-10-21 23:29  
bogdan8249, бо в нас AVC - це релізи з розміром кадру ДО 1200 х 688
Ваш часовий пояс: GMT + 2 Години

Нова тема   Відповісти