Велика подорож вглиб океанів 3D: Повернення / Черепахи: Неймовірна подорож / Turtle: The Incredible Journey (2009) 720p 3D [Анагліф/Anaglyph]

Нові коментарі

Нова тема   Відповісти
Автор Повідомлення
AngryBirdsUA 
Свій


З нами з: 24.02.10
Востаннє: 20.08.17
Повідомлень: 3097

2015-10-18 23:07  
Велика подорож вглиб океанів 3D: Повернення /Черепахи: Неймовірна подорож / Turtle: The Incredible Journey (2009) 720p 3D [Анагліф/Anaglyph]

Велика подорож вглиб океанів 3D: Повернення / Черепахи: Неймовірна подорож / Turtle: The Incredible Journey (2009) 720p 3D [Анагліф/Anaglyph]


Жанр: документальний
Країна: Німеччина, Велика Британія



Кінокомпанія: Film and Music Entertainment (F&ME), Big Wave Productions Ltd., Allegro Film
Режисер: Нік Стрінгер
Сюжет:
Головний герой - морська черепаха - кличе в дорогу і стане вашим гідом в приголомшливій подорожі між континентами в бурхливих хвилях світового океану. Вас чекають барвисті коралові рифи, сутички з акулами, рідкісні мешканці глибоководдя, строкатий світ жарких тропіків і лякаючий холод антарктичних льодів. Скільки загадок і таємниць зберігає морська безодня! Скарби затонулих кораблів і аномалія Бермудського трикутника - це ніщо в порівнянні з тим, що вам належить дізнатися. У цій дивній подорожі вам відкриється вся потужність Океану і крихкість цього складного підводного світу, який так потребує нашого захисту!


Тривалість: 01:15:41
Якість:
Відео:
кодек:
розмір кадру: 1280 х 720
бітрейт: 7519 кб/с

Аудіо:
мова: українська
переклад: багатоголосий закадровий
кодек: 2.0
бітрейт: 192 кб/с

Джерело озвучення:
Info
General
Unique ID : 206978480220011661516837043541277046991 (0x9BB69AF44833F7EEA4229D88FF0A78CF)
Complete name : E:\Turtle. The Incredible Journey (2009) 720p [Anaglyph] [Hurtom].
Format :
Format version : Version 4 / Version 2
File size : 4.08 GiB
Duration : 1h 15mn
Overall bit rate : 7 710 Kbps
Encoded date : UTC 2015-10-18 19:50:09
Writing application : mkvmerge v7.5.0 ('Glass Culture') 32bit built on Jan 4 2015 16:37:25
Writing library : libebml v1.3.1 + libmatroska v1.4.2
DURATION : 01:14:58.816000000
NUMBER_OF_FRAMES : 140588
NUMBER_OF_BYTES : 107971584
_STATISTICS_WRITING_APP : mkvmerge v7.5.0 ('Glass Culture') 32bit built on Jan 4 2015 16:37:25
_STATISTICS_WRITING_DATE_UT : 2015-10-18 19:50:09
_STATISTICS_TAGS : BPS DURATION NUMBER_OF_FRAMES NUMBER_OF_BYTES

Video
ID : 1
Format : AVC
Format/Info : Advanced Video Codec
Format profile : [email protected]
Format settings, CABAC : Yes
Format settings, ReFrames : 4 frames
Codec ID : V_MPEG4/ISO/AVC
Duration : 1h 15mn
Bit rate : 7 519 Kbps
Width : 1 280 pixels
Height : 720 pixels
Display aspect ratio : 16:9
Frame rate mode : Constant
Frame rate : 23.976 fps
Color space : YUV
Chroma subsampling : 4:2:0
Bit depth : 8 bits
Scan type : Progressive
Bits/(Pixel*Frame) : 0.340
Stream size : 3.89 GiB (96%)
Writing library : core 112 r1867 22bfd31
Encoding settings : cabac=1 / ref=4 / deblock=1:-1:-1 / analyse=0x3:0x113 / me=umh / subme=7 / psy=1 / psy_rd=1.00:0.00 / mixed_ref=1 / me_range=16 / chroma_me=1 / trellis=2 / 8x8dct=1 / cqm=0 / deadzone=21,11 / fast_pskip=1 / chroma_qp_offset=-2 / threads=3 / sliced_threads=0 / nr=0 / decimate=1 / interlaced=0 / constrained_intra=0 / bframes=3 / b_pyramid=0 / b_adapt=2 / b_bias=0 / direct=3 / weightb=1 / open_gop=0 / weightp=2 / keyint=250 / keyint_min=23 / scenecut=40 / intra_refresh=0 / rc_lookahead=40 / rc=2pass / mbtree=1 / bitrate=7519 / ratetol=1.0 / qcomp=0.60 / qpmin=10 / qpmax=51 / qpstep=4 / cplxblur=20.0 / qblur=0.5 / vbv_maxrate=50000 / vbv_bufsize=50000 / nal_hrd=none / ip_ratio=1.40 / aq=1:1.00
Default : Yes
Forced : Yes
DURATION : 01:15:41.037000000
NUMBER_OF_FRAMES : 108876
NUMBER_OF_BYTES : 4267514575
_STATISTICS_WRITING_APP : mkvmerge v7.5.0 ('Glass Culture') 32bit built on Jan 4 2015 16:37:25
_STATISTICS_WRITING_DATE_UT : 2015-10-18 19:50:09
_STATISTICS_TAGS : BPS DURATION NUMBER_OF_FRAMES NUMBER_OF_BYTES

Audio
ID : 2
Format : AC-3
Format/Info : Audio Coding 3
Mode extension : CM (complete main)
Format settings, Endianness : Big
Codec ID : A_AC3
Duration : 1h 15mn
Bit rate mode : Constant
Bit rate : 192 Kbps
Channel(s) : 2 channels
Channel positions : Front: L R
Sampling rate : 48.0 KHz
Compression mode : Lossy
Stream size : 104 MiB (2%)
Language : Ukrainian
Default : Yes
Forced : No

Увага!
Відео виконане в форматі 3D! Для перегляду потрібні спеціальні 3D-окуляри (анагліф)



Підтримати купівлю інших фільмів можна тут.


Джерело: 

 Трекер:    Зареєстрований   

Завантажити / скачати фільм українською



відео для новачків



 Зареєстрований:   2015-10-18 23:07
 Розмір:   4.08 GB 
 Оцінка фільму:   4.3/10 (Голосів: 19)
   
AngryBirdsUA 
Свій


З нами з: 24.02.10
Востаннє: 20.08.17
Повідомлень: 3097

2015-10-18 23:10  
У відео назва фільму російською.
igor911 
Відео Гуртом
Відео Гуртом


З нами з: 18.01.08
Востаннє: 20.08.17
Повідомлень: 7291

2015-10-19 03:21  
Vasua95, на майбутнє бажано вказувати "3D" і в назві файлу, щоб потім легше було шукати/впорядковувати на компі.
Dream 
Новенький


З нами з: 30.06.09
Востаннє: 18.08.17
Повідомлень: 16

2017-04-09 09:11  
Виправте в заголовку "AnaLGyph" на "AnaGLyph" ;D
igor911 
Відео Гуртом
Відео Гуртом


З нами з: 18.01.08
Востаннє: 20.08.17
Повідомлень: 7291

2017-04-09 09:51  
Dream, виправив.
Ваш часовий пояс: GMT + 2 Години

Нова тема   Відповісти