Останній Дядько На Землі (Сезон 2, серії 1-7) / The Last Man On Earth (Season 2, episodes 1-7) (2015) 1080p

Нові коментарі

Нова тема   Відповісти

Увійдіть, щоб проголосувати
Автор Повідомлення
Anonymous 







2015-10-14 12:03  
Останній Дядько На Землі (Сезон 2, серії 1-7) / The Last Man On Earth (Season 2, episodes 1-7) (2015) 1080p

Останній Дядько На Землі (Сезон 2, серії 1-7) / The Last Man On Earth (Season 2, episodes 1-7) (2015) 1080p


Жанр: комедія, наукова фантастика
Країна: США



Кінокомпанія: 20th Century Fox Television / Lord Miller Productions
Режисер: Вілл Форте
Актори: Вілл Форте, Дженьюарі Джонс, Крістен Шаал, Мел Родрігес, Клеопатра Коулмен

Сюжет:
"Ще зовсім недавно Філ Міллер жив собі звичним життям середньостатистичного чоловіка, любив друзів та родину, ненавидів свою нудну роботу в банку. Аж раптом в єдину мить він залишився останнім чоловіком на Землі. Тепер його найбільша мрія - врятуватись від самотності... і побачити живу жінку. Та Філу доведеться добряче переглянути свої мрії, коли він зустріне Керол..."


Тривалість: 1 серія: 21:35 (серій: 7 з 18)
Перелік серій
1.«Is There Anybody Out There?»
2.«The Boo»
3.«Dead Man Walking»
4.«C to the T»
5.«Crickets»
6.«A Real Live Wire»
7.«Baby Steps»

8.«No Bull»
9.«Secret Santa»
10.«Silent Night»
11.«Pitch Black»
12.«Valhalla»
13.«Fish in the Dish»
14.«Skidmark»
15.«Fourth Finger»
16.«Falling Slowly»
17.«Smart and Stupid»
18.«30 Years of Science Down the Tubes»

Якість:
Відео:
кодек:
розмір кадру: 1 920 х 1 080
бітрейт: 4 882 кб/с

Аудіо:
мова: українська
озвучення: любительське, багатоголосе закадрове | КРUПА™
кодек: 2.0
бітрейт: 317 кб/с
Info
General
Complete name : F:\Новая папка\The.Last.Man.On.Earth.S02E01.1080p.KRUPA_UKR.mp4
Format : MPEG-4
Format profile : Base Media / Version 2
Codec ID : mp42
File size : 803 MiB
Duration : 21mn 35s
Overall bit rate mode : Variable
Overall bit rate : 5 203 Kbps
Encoded date : UTC 2015-09-30 00:03:17
Tagged date : UTC 2015-09-30 00:03:56
©TIM : 00:00:00:00
©TSC : 24000
©TSZ : 1001

Video
ID : 1
Format : AVC
Format/Info : Advanced Video Codec
Format profile : [email protected]
Format settings, CABAC : Yes
Format settings, ReFrames : 3 frames
Codec ID : avc1
Codec ID/Info : Advanced Video Coding
Duration : 21mn 35s
Bit rate : 4 882 Kbps
Width : 1 920 pixels
Height : 1 080 pixels
Display aspect ratio : 16:9
Frame rate mode : Variable
Frame rate : 23.976 fps
Minimum frame rate : 23.976 fps
Maximum frame rate : 24.000 fps
Standard : NTSC
Color space : YUV
Chroma subsampling : 4:2:0
Bit depth : 8 bits
Scan type : Progressive
Bits/(Pixel*Frame) : 0.098
Stream size : 754 MiB (94%)
Language : English
Encoded date : UTC 2015-09-30 00:03:17
Tagged date : UTC 2015-09-30 00:03:17
Color primaries : BT.709-5, BT.1361, IEC 61966-2-4, SMPTE RP177
Transfer characteristics : BT.709-5, BT.1361
Matrix coefficients : BT.709-5, BT.1361, IEC 61966-2-4 709, SMPTE RP177

Audio
ID : 2
Format :
Format/Info : Advanced Audio Codec
Format profile : LC
Codec ID : 40
Duration : 21mn 35s
Source duration : 21mn 35s
Bit rate mode : Variable
Bit rate : 317 Kbps
Maximum bit rate : 355 Kbps
Channel(s) : 2 channels
Channel positions : Front: L R
Sampling rate : 48.0 KHz
Compression mode : Lossy
Delay relative to video : -11ms
Stream size : 49.0 MiB (6%)
Source stream size : 49.0 MiB (6%)
Language : English
Encoded date : UTC 2015-09-30 00:03:17
Tagged date : UTC 2015-09-30 00:03:17
Скріншоти




Шукайте сторінки студії в соц. мережах: КРUПА™
Джерело:
Особиста оцінка: 8 - мені сподобалося


Авторський реліз (завантажувати можна без реєстрації)
 Трекер:    Зареєстрований   

Завантажити / скачати серіал українською



відео для новачків



 Зареєстрований:   2015-12-09 23:02
 Розмір:   5.46 GB 
 Оцінка серіалу:   9/10 (Голосів: 26)
   
Anonymous 







2015-10-17 19:13  
ДОДАНО 3 СЕРІЮ
tribus 
VIP


З нами з: 22.10.14
Востаннє: 23.09.18
Повідомлень: 576

2015-10-17 19:19  
igor911 написано:
щоб не пропадали подяки при оновленні торрента, див. https://toloka.to/t26787

Anonymous 







2015-10-17 19:32  
tribus
дякую, буду знати

dniprodd 
Поважний учасник


З нами з: 31.10.09
Востаннє: 29.11.20
Повідомлень: 205

2015-10-17 20:11  
здається якийсь телеканал почав транслювати цей серіал в англійській озвучці і українськими титрами.
kpomed 
Частий відвідувач


З нами з: 12.10.13
Востаннє: 29.11.20
Повідомлень: 40

2015-10-17 22:02  
Дякую!
forest17 
Новенький


З нами з: 28.08.09
Востаннє: 28.11.20
Повідомлень: 19

2015-10-18 19:03  
А сезон 1 є?
Gedet 
Відео Гуртом - субтитрування
Відео Гуртом - субтитрування


З нами з: 17.11.11
Востаннє: 15.08.20
Повідомлень: 1756

2015-10-19 17:14  
Пошук за назвою вам у помічь.
ovod 
Свій


З нами з: 09.02.09
Востаннє: 29.11.20
Повідомлень: 145

2015-10-19 19:09  
А хто допоможе з першим сезоном?
Anonymous 







2015-10-19 20:56  
forest17 написано:
А сезон 1 є?

ovod написано:
А хто допоможе з першим сезоном?

Від цієї студії ще немає. Але він готується, шукайте інформацію на соц. сторінках студії.

Anonymous 







2015-10-21 15:30  
ДОДАНО 4 СЕРІЮ
Irop001 
Новенький


З нами з: 30.01.10
Востаннє: 28.11.20
Повідомлень: 11

2015-10-25 10:25  
щодо першого сезону пошуком шукайте англ. назву, бо переклад в різних релізерів може відрізнятись. І шукати потрібно на спочатку толоці, а потім на порталі.
Anonymous 







2015-11-02 14:00  
ДОДАНО 5 СЕРІЮ
push_k_in 
Новенький


З нами з: 16.03.13
Востаннє: 29.11.20
Повідомлень: 9

2015-11-02 15:57  
Петров Микола
По перше, дякую за серіал. В мене є питання:
А чи можна не змінювати назву торент файла? Поясню чому:
Коли ви змінюєте назву торент файла, а я його завантажую, то виходить нова назва теки, в якій знаходяться серії, тому потрібно йти до файл-менеджера змінювати назву старої теки на нову, ставити торент в клієнті на перевірку, і потім розпочинати завантаження.

fldd17 
Свій


З нами з: 17.03.11
Востаннє: 29.11.20
Повідомлень: 62

2015-11-16 18:10  
чи буде продовження?
Anonymous 







2015-11-17 22:57  
fldd17 написано:
чи буде продовження?

так

Додано через 8 хвилин 41 секунду:

ДОДАНО 6 СЕРІЮ

lexxai 
Свій


З нами з: 04.02.10
Востаннє: 30.11.20
Повідомлень: 110

2015-11-18 03:57  
push_k_in
Цитата:
Коли ви змінюєте назву торент файла, а я його завантажую, то виходить нова назва теки,


Та і залишати так теж якось не так...
Краще один раз вже переробити теку на "Останній Дядько На Землі (Сезон 2)".

Anonymous 







2015-11-18 10:06  
lexxai написано:

Та і залишати так теж якось не так...
Краще один раз вже переробити теку на "Останній Дядько На Землі (Сезон 2)".

Змінив назву теки на "Останній Дядько На Землі (Сезон 2)". Прохання оновити torrent

Anonymous 







2015-12-09 22:44  
ДОДАНО 7 СЕРІЮ
vadikmen741 
Новенький


З нами з: 20.02.12
Востаннє: 11.02.18
Повідомлень: 6

2015-12-10 09:41  
Закиньте будь-ласка повне перевтілення дім за тиждень на тет вже 5 тий сезон вийшов. А внеті українською найти не реально тількі на ех іто 3 сезон неповнийї
Ваш часовий пояс: GMT + 2 Години

Нова тема   Відповісти