Маленький Мао / Little Mao (2012) 720p Eng | Sub Ukr

Нові коментарі

Нова тема   Відповісти
Автор Повідомлення
wolesj 
VIP


З нами з: 15.07.12
Востаннє: 23.09.17
Повідомлень: 459

2015-10-03 23:04  
Маленький Мао / Little Mao (2012) 720p Eng | Sub Ukr

Маленький Мао / Little Mao (2012) 720p Eng | Sub Ukr


Жанр: драма, комедія
Країна: Канада



Кінокомпанія: Varipix
Режисер: Аллан Тонґ
Актори: Кевін Вон, Арієна Сорані, Айзек Пілоцо, Аліша Отем, Джуліан Клімчик та інші

Сюжет:
Після нещасного випадку на бейсболі в малого Боббі вселився дух Великого Мао…


Тривалість: 00:05:36
Якість:
Відео:
кодек: MPEG-4
розмір кадру: 1280x720
бітрейт: 2 293 Kbps

Аудіо:
мова: англійська
переклад: оригінал
кодек: 2.0
бітрейт: 192 Kbps

Субтитри:
мова: українська (переклад з англійської wolesj)
тип: програмні (м'які)
формат: *.srt

Скріншоти
Медіаінфо:
Format : MPEG-4
Format profile : Base Media / Version 2
Codec ID : mp42
File size : 99.7 MiB
Duration : 5mn 36s
Overall bit rate : 2 487 Kbps
Encoded date : UTC 2013-12-10 17:40:22
Tagged date : UTC 2013-12-10 17:40:22
gsst : 0
gstd : 336433
gssd : B538C4206HM1442043689744072
gshh : r3---sn-585pav-ch5e.googlevideo.com

Video
Format : AVC
Format/Info : Advanced Video Codec
Format profile : [email protected]
Format settings, CABAC : Yes
Format settings, ReFrames : 1 frame
Codec ID : avc1
Codec ID/Info : Advanced Video Coding
Duration : 5mn 36s
Bit rate mode : Variable
Bit rate : 2 293 Kbps
Maximum bit rate : 6 061 Kbps
Width : 1 280 pixels
Height : 720 pixels
Display aspect ratio : 16/9
Frame rate mode : Variable
Frame rate : 29.970 fps
Resolution : 24 bits
Colorimetry : 4:2:0
Scan type : Progressive
Bits/(Pixel*Frame) : 0.083
Stream size : 91.9 MiB (92%)
Tagged date : UTC 2013-12-10 17:40:25

Audio
Format :
Format/Info : Advanced Audio Codec
Format version : Version 4
Format profile : LC
Format settings, SBR : No
Codec ID : 40
Duration : 5mn 36s
Bit rate mode : Variable
Bit rate : 192 Kbps
Maximum bit rate : 202 Kbps
Channel(s) : 2 channels
Channel positions : L R
Sampling rate : 44.1 KHz
Resolution : 16 bits
Stream size : 7.70 MiB (8%)
Title : IsoMedia File Produced by Google, 5-11-2011
Encoded date : UTC 2013-12-10 17:40:24
Tagged date : UTC 2013-12-10 17:40:25
Джерело: Vimeo
Особиста оцінка: 8.
ДЯКУЮ ЗА ПІДТРИМКУ РОЗДАЧІ!


Золотий реліз (завантажене не впливає на рейтинг)
 Трекер:    Зареєстрований   

Завантажити / скачати фільм українською



відео для новачків



 Зареєстрований:   2015-10-03 23:04
 Розмір:   100 MB 
 Оцінка фільму:   -/10 (Голосів: 0)
   
Ваш часовий пояс: GMT + 2 Години

Нова тема   Відповісти