Креснік: пізнай вогонь / Kresnik: Ognjeno izročilo (2014) Slv | Sub Ukr

Нові коментарі

Нова тема   Відповісти
Автор Повідомлення
wolesj 
VIP


З нами з: 15.07.12
Востаннє: 22.01.20
Повідомлень: 749

2015-09-29 20:54  
Креснік: пізнай вогонь / Kresnik: Ognjeno izročilo (2014) Slv | Sub Ukr

Креснік: пізнай вогонь / Kresnik: Ognjeno izročilo (2014) Slv | Sub Ukr


Жанр: пригодницький, сімейний, міфологія
Країна: Словенія



Кінокомпанія: Haritude Ventures
Режисер: Давід Сіпош
Актори: Цене Скрт, Альяж Шімуніч, Домен Янчіч, Даре Валіч, Асія Султанова

Сюжет:
Петер приїхав до дідуся напередодні Кресніка (словенський аналог Купала). Дідусь спонукає його заночувати в наметі разом з двоюрідними братами. Хлопці зовсім не очікували, що доведеться їм пережити тієї ночі.
Нагороди:
Fort Worth Indie Film Showcase
Arlington Int’l Film Festival
Itsa Film Festival
Тривалість: 00:22:15
Якість:
Відео:
кодек:
розмір кадру: 1920 x 816
бітрейт: 3 285 кб/с

Аудіо:
мова: словенська
переклад: оригінал
кодек: 2.0
бітрейт: 256 кб/с

Субтитри:
мова: українська (переклад з англійської wolesj)
тип: програмні (м'які)
формат: *.srt
Медіаінфо:
General
Format : MPEG-4
Format profile : Base Media / Version 2
Codec ID : mp42
File size : 564 MiB
Duration : 22mn 15s
Overall bit rate mode : Variable
Overall bit rate : 3 545 Kbps
Encoded date : UTC 2015-09-04 16:50:52
Tagged date : UTC 2015-09-04 16:50:52

Video
ID : 1
Format : AVC
Format/Info : Advanced Video Codec
Format profile : [email protected]
Format settings, CABAC : Yes
Format settings, ReFrames : 5 frames
Codec ID : avc1
Codec ID/Info : Advanced Video Coding
Duration : 22mn 15s
Bit rate : 3 285 Kbps
Width : 1 920 pixels
Height : 816 pixels
Display aspect ratio : 2.35:1
Frame rate mode : Constant
Frame rate : 25.000 fps
Color space : YUV
Chroma subsampling : 4:2:0
Bit depth : 8 bits
Scan type : Progressive
Bits/(Pixel*Frame) : 0.084
Stream size : 523 MiB (93%)
Writing library : core 148 r11 73ae2d1
Encoding settings : cabac=1 / ref=5 / deblock=1:0:0 / analyse=0x3:0x113 / me=umh / subme=8 / psy=1 / psy_rd=1.00:0.00 / mixed_ref=1 / me_range=16 / chroma_me=1 / trellis=1 / 8x8dct=1 / cqm=0 / deadzone=21,11 / fast_pskip=1 / chroma_qp_offset=-2 / threads=25 / lookahead_threads=4 / sliced_threads=0 / nr=0 / decimate=1 / interlaced=0 / bluray_compat=0 / stitchable=1 / constrained_intra=0 / bframes=3 / b_pyramid=2 / b_adapt=2 / b_bias=0 / direct=3 / weightb=1 / open_gop=0 / weightp=2 / keyint=infinite / keyint_min=25 / scenecut=40 / intra_refresh=0 / rc_lookahead=50 / rc=crf / mbtree=1 / crf=20.0 / qcomp=0.60 / qpmin=5 / qpmax=69 / qpstep=4 / vbv_maxrate=4950 / vbv_bufsize=13500 / crf_max=0.0 / nal_hrd=none / filler=0 / ip_ratio=1.40 / aq=1:1.00
Encoded date : UTC 2015-09-04 16:50:52
Tagged date : UTC 2015-09-04 16:50:52
Color primaries : BT.709-5, BT.1361, IEC 61966-2-4, SMPTE RP177
Transfer characteristics : BT.709-5, BT.1361
Matrix coefficients : BT.709-5, BT.1361, IEC 61966-2-4 709, SMPTE RP177

Audio
ID : 2
Format :
Format/Info : Advanced Audio Codec
Format profile : LC
Codec ID : 40
Duration : 22mn 15s
Bit rate mode : Variable
Bit rate : 256 Kbps
Channel(s) : 2 channels
Channel positions : Front: L R
Sampling rate : 48.0 KHz
Compression mode : Lossy
Delay relative to video : -3ms
Stream size : 40.7 MiB (7%)
Encoded date : UTC 2015-09-04 16:50:52
Tagged date : UTC 2015-09-04 16:50:52
Скріншоти:


Джерело: Vimeo
Особиста оцінка: 9.
ДЯКУЮ ЗА ПІДТРИМКУ РОЗДАЧІ!


Золотий реліз (завантажене не впливає на рейтинг)
 Трекер:    Зареєстрований   

Завантажити / скачати фільм українською



відео для новачків



 Зареєстрований:   2015-09-29 20:54
 Розмір:   564 MB 
 Оцінка фільму:   10/10 (Голосів: 1)
   
Konfucius 
Управління
Управління


З нами з: 30.09.07
Востаннє: 22.01.20
Повідомлень: 5189

2015-10-02 09:14  
Добавте Info.
olexa3007 
Новенький


З нами з: 20.12.13
Востаннє: 11.09.17
Повідомлень: 22

2016-01-08 21:39  
Будьте ласочками, будь ласочка! Дайте роздачі!
Ваш часовий пояс: GMT + 2 Години

Нова тема   Відповісти