Зоряні Війни: Війни клонів (Сезон 4) / Star Wars: The Clone Wars (Season 4) (2011) 720p Ukr/Eng | Sub Eng

Нові коментарі

Нова тема   Відповісти
Автор Повідомлення
radagastr 
Відео Гуртом - фільмокрай
Відео Гуртом - фільмокрай


З нами з: 05.12.08
Востаннє: 23.04.21
Повідомлень: 1077

2015-09-15 19:56  
Зоряні Війни: Війни клонів (Сезон 4) / Star Wars: The Clone Wars (Season 4) (2011) 720p Ukr/Eng | Sub Eng


Жанр: анімація, пригодницький, сімейний, фантастика
Країна: США

8.4 (2 120 голосів)


Кінокомпанія: CGCG, Lucasfilm.
Режисер: Дейв Філоні.
Ролі озвучують (в оригіналі): Кетрін Табе, Метт Лентер, Ешлі Екстайн, Том Кейн, Метью Вуд...
Українською озвучують: Євген Малуха та ...

Сюжет: Дія у мультсеріалі розгортаються на часовому проміжку між другим та третім епізодами фільму "Зоряні Війни". Кожна серія описує невеликий період Війн Клонів. На передових позиціях міжгалактичної війни Добра і Зла знову Енакін Скайуокер, Обі-Ван Кенобі, Падме Амідала, а також падаван Енакіна - Асока, з іншого боку їм протистоять Палпалатін, граф Дуку, генерал Грівус і багато їхніх спільників.


Тривалість: 1 серія ~22-23 хвилини (цілком серій: 22)
Перелік серій
  1. Water War
    Девіз: коли обов'язок кличе, в обраного немає вибору.
    Енакін, Падме, Кіт Фісто й Асока тано знаходяться на планеті народу Мон Каламарі. Там вони допомагають знайти примирення в громадській війні. Та в сепаратистів інші плани. Чи вдасться джедаям і Мон Каламарі, об'єднавши сили, відбити зазіхання окупантів, чи ще одна планета потрапить до рук сепаратистів? Підводна битва буде ще одним випробуванням для республіки.

  2. Gungan Attack
    Девіз: міцний меч можна викувати тільки у вогні.
    Сили Республіки зазнали поразки від сепаратистів на Мон Каламарі. Тому Рада Джедаїв змушена звернутися за допомогою до Джар Джар Бінкса та армії Ґанґанів. Тим часом, залишки республіканських сил захоплені в полон, а Асока та принц Лі-Чар мають розробити нову стратегію.

  3. Prisoners
    Девіз:

  4. Shadow Warrior
    Девіз:

  5. Mercy Mission
    Девіз:

  6. Nomad Droids
    Девіз:

  7. Darkness on Umbara
    Девіз:

  8. The General
    Девіз:

  9. Plan of Dissent
    Девіз:

  10. Carnage of Krell
    Девіз:

  11. Kidnapped
    Девіз:

  12. Slaves of the Republic
    Девіз:

  13. Escape from Kadavo
    Девіз:

  14. A Friend in Need
    Девіз:

  15. Deception
    Девіз:

  16. Friends and Enemies
    Девіз:

  17. The Box
    Девіз:

  18. Crisis on Naboo
    Девіз:

  19. Massacre
    Девіз:

  20. Bounty
    Девіз:

  21. Brothers
    Девіз:

  22. Revenge
    Девіз:

    <... більше деталей згодом ...>

x
Якість:
Контейнер:
Info

General
Unique ID : 238290735066063123950188122422090824486 (0xB345204F85195392AB1C6909F1FA7B26)
Complete name : D:\movies\Star Wars\Star Wars The Clone Wars - Season 4 [Ukr, Eng] 720p [Hurtom]\The Clone Wars s04e02 [ukr,eng] 720p [Hurtom].
Format :
Format version : Version 4 / Version 2
File size : 525 MiB
Duration : 22mn 36s
Overall bit rate : 3 246 Kbps
Movie name : The Clone Wars (2011) S04E02 - Gungan Attack
Encoded date : UTC 2015-07-20 17:06:59
Writing application : v6.8.0 ('Theme for Great Cities') 64bit built on Mar 2 2014 21:34:26
Writing library : libebml v1.3.0 + v1.4.1

Video
ID : 1
Format : AVC
Format/Info : Advanced Video Codec
Format profile : [email protected]
Format settings, CABAC : Yes
Format settings, ReFrames : 5 frames
Codec ID : V_MPEG4/ISO/AVC
Duration : 22mn 36s
Bit rate : 2 416 Kbps
Width : 1 280 pixels
Height : 544 pixels
Display aspect ratio : 2.35:1
Frame rate mode : Constant
Frame rate : 23.976 fps
Color space : YUV
Chroma subsampling : 4:2:0
Bit depth : 8 bits
Scan type : Progressive
Bits/(Pixel*Frame) : 0.145
Stream size : 380 MiB (72%)
Title : Gungan Attack [Episode 2, Season 4]
Writing library : core 128 r2216 198a7ea
Encoding settings : cabac=1 / ref=5 / deblock=1:0:0 / analyse=0x3:0x113 / me=umh / subme=8 / psy=1 / psy_rd=1.00:0.00 / mixed_ref=1 / me_range=16 / chroma_me=1 / trellis=1 / 8x8dct=1 / cqm=0 / deadzone=21,11 / fast_pskip=1 / chroma_qp_offset=-2 / threads=12 / lookahead_threads=2 / sliced_threads=0 / nr=0 / decimate=1 / interlaced=0 / bluray_compat=0 / constrained_intra=0 / bframes=3 / b_pyramid=2 / b_adapt=2 / b_bias=0 / direct=3 / weightb=1 / open_gop=0 / weightp=2 / keyint=240 / keyint_min=24 / scenecut=40 / intra_refresh=0 / rc_lookahead=50 / rc=2pass / mbtree=1 / bitrate=2416 / ratetol=1.0 / qcomp=0.60 / qpmin=0 / qpmax=69 / qpstep=4 / cplxblur=20.0 / qblur=0.5 / ip_ratio=1.40 / aq=1:1.00
Language : English
Default : Yes
Forced : Yes

Audio #1
ID : 2
Format : AC-3
Format/Info : Audio Coding 3
Mode extension : CM (complete main)
Format settings, Endianness : Big
Codec ID : A_AC3
Duration : 22mn 36s
Bit rate mode : Constant
Bit rate : 192 Kbps
Channel(s) : 2 channels
Channel positions : Front: L R
Sampling rate : 48.0 KHz
Compression mode : Lossy
Stream size : 31.1 MiB (6%)
Title : Закадровий - QTV [2.0]
Language : Ukrainian
Default : Yes
Forced : Yes

Audio #2
ID : 3
Format : AC-3
Format/Info : Audio Coding 3
Mode extension : CM (complete main)
Format settings, Endianness : Big
Codec ID : A_AC3
Duration : 22mn 36s
Bit rate mode : Constant
Bit rate : 640 Kbps
Channel(s) : 6 channels
Channel positions : Front: L C R, Side: L R, LFE
Sampling rate : 48.0 KHz
Compression mode : Lossy
Stream size : 104 MiB (20%)
Title : Original [5.1]
Language : English
Default : No
Forced : No

Text
ID : 4
Format : UTF-8
Codec ID : S_TEXT/UTF8
Codec ID/Info : UTF-8 Plain Text
Title : SDH
Language : English
Default : No
Forced : No

Menu
00:00:00.000 : en:00:00:00.000
00:08:09.531 : en:00:08:09.531
00:15:25.258 : en:00:15:25.258
00:21:57.149 : en:00:21:57.149
Відео:
кодек:
розмір кадру: 1280 х 544
бітрейт: ~3100 кб/с

Аудіо 1:
мова: українська
переклад: багатоголосий закадровий
кодек: 2.0
бітрейт: 192 кб/с

Аудіо 2:
мова: англійська
переклад: оригінал
кодек: 5.1
бітрейт: 640 кб/с

Субтитри:
мова: англійська
тип: програмні (м'які)
формат: *.srt

Переклад і озвучення виконано:

Скріншоти:
Натискати сюди



x
Величезна подяка за сирий звук - aaa4523.

Джерело: .
Особиста оцінка: 8 - мені сподобалося


Бронзовий реліз (на рейтинг впливає 75% завантаженого)
 Трекер:    Зареєстрований   

Завантажити / скачати мультфільм українською



відео для новачків



 Зареєстрований:   2015-09-20 15:01
 Розмір:   11.31 GB 
 Оцінка мультсеріалу:   10/10 (Голосів: 17)
   
radagastr 
Відео Гуртом - фільмокрай
Відео Гуртом - фільмокрай


З нами з: 05.12.08
Востаннє: 23.04.21
Повідомлень: 1077

2015-09-15 19:56  
також буде СДріп
Кач 
VIP


З нами з: 12.05.14
Востаннє: 23.04.21
Повідомлень: 337

2015-09-15 21:19  
Привіт. В мене буде велике прохання до вас, можете будь ласка викласти 1 та 2 сезони окремо з озвучкою QTV, окремим релізом, тобто ті що тут вже є(перший сезон та другий сезони) буде з озвучкою нового каналу, а той з QTV? Або усі одразу в одному релізі, тобто 1 та 2 сезони з нового каналу буде в цих релізах, а QTV в одному всі сезони. Або хоча б якщо можна сирий звук на ex скиньте(може хтось зробить релізи з цією озвучкою), хоча б до тих серій до яких є звук з 1 та 2 сезону. Не прийміть це прохання за нахабство, просто озвучка сподобалась хотілось просто 1 та 2 теж з нею мати, бо з нового вже є, а от з цією перших двох немає.
radagastr 
Відео Гуртом - фільмокрай
Відео Гуртом - фільмокрай


З нами з: 05.12.08
Востаннє: 23.04.21
Повідомлень: 1077

2015-09-15 21:33  
Кач, відповідь тут -- https://toloka.to/t66435#736642
bot 
робот


З нами з: 30.09.07
Востаннє: 26.05.05
Повідомлень: 27965

2015-09-20 14:41  
Тему перенесено з Анонси релізів до форуму Мультсеріали в HD


radagastr

radagastr 
Відео Гуртом - фільмокрай
Відео Гуртом - фільмокрай


З нами з: 05.12.08
Востаннє: 23.04.21
Повідомлень: 1077

2015-09-20 15:18  
З понеділка почну зводити 5ий сезон, а поки приємного перегляду 4ого сезону. Особисто мені він дуже сподобався
radagastr 
Відео Гуртом - фільмокрай
Відео Гуртом - фільмокрай


З нами з: 05.12.08
Востаннє: 23.04.21
Повідомлень: 1077

2015-09-21 19:23  
дивина якась. бачу пір висить у торренті, а не вантажить в мене клонів... а так хочеться роздати людям
igor911 
Модератор відео


З нами з: 18.01.08
Востаннє: 23.04.21
Повідомлень: 15900

2015-09-21 19:30  
radagastr, мабуть у вас обох закриті порти, треба або відкривати (якщо є можливість), або чекати когось з відкритим портом.
radagastr 
Відео Гуртом - фільмокрай
Відео Гуртом - фільмокрай


З нами з: 05.12.08
Востаннє: 23.04.21
Повідомлень: 1077

2015-09-21 19:46  
заглушив усі торенти окрім цього і наче пішло.
та дякую за пораду

s1ress 
Новенький


З нами з: 29.12.12
Востаннє: 31.07.17
Повідомлень: 1

2015-12-07 22:48  
Дуже дякую за реліз! Це чудовий серіал і дуже приємно, що є люди які спеціально готують релізи українською мовою.

Також не хотілось би виглядати невдячним але все ж мушу запитати на рахунок 5-го сезону, а саме чи вийде реліз взагалі, і якщо так то чи буде готовий хоча б до кінця року?

P.S. Повторююсь, я не хочу виглядати невдячним просто серіал насправді дуже цікавий, і мені хотілось би додивитися його українською (хоча б 5-й сезон) і якщо в силу тих чи інших обставин автор зупинив роботу над релізом залишається тільки подякувати йому за чудових 4 релізи цього серіалу і побажати успіхів та натхнення у його подальшій роботі.

yamakasis2 
Новенький


З нами з: 15.01.17
Востаннє: 04.04.21
Повідомлень: 1

2017-01-31 05:28  
А, 5 та 6 сезони будуть?
EvGaS 
Відео Гуртом - субтитрування
Відео Гуртом - субтитрування


З нами з: 27.02.12
Востаннє: 31.07.19
Повідомлень: 5663

2017-01-31 08:18  
yamakasis2 написано:
А, 5 та 6 сезони будуть?

Ніколи. Мультсеріал перейшов в стиль діснея й має абсолютно іншу історію, ба й персонажів.

Додано через 2 хвилини 42 секунди:

(тобто, взагалі не має ніякого відношення й абсолютно різні, окрім того, що це мультсеріали на тему ЗВ у 3-Д графіці про часовий проміжок 2-3 кіноепізодів)

Ваш часовий пояс: GMT + 2 Години

Нова тема   Відповісти