Nokturnal Mortum - Коловорот (Live)(2CD) (2011) [FLAC] | Folk Symphonic Black Metal

Нові коментарі

Нова тема   Відповісти
Автор Повідомлення
kolpavel 
VIP


З нами з: 04.05.14
Востаннє: 25.05.17
Повідомлень: 1132

2015-09-09 20:17  
Nokturnal Mortum - Коловорот (Live) (2CD) (2011) [FLAC] | Folk Symphonic Black Metal

Nokturnal Mortum - Коловорот (Live)(2CD) (2011) [FLAC] | Folk Symphonic Black Metal


Стиль: Folk Symphonic Black Metal
Країна, місто: Україна, Харків
Сайти: Офіційний сайт
Видавець: ℗ 2015 Oriana Music (№ за каталогом: OMCD14)
Виконавці:
Art Direction, Design Concept, Design – Sir Gorgoroth
Bass – Vrolok (2)
Drums – Bairoth
Engineer – Andrey "Astargh" Veryovkin*, Brian Elliott, Max Polienko, Nikita Shkuropat
Keyboards, Vocals – Saturious
Photography By – Roman "Drauthran" Matviichuk
Vocals, Guitar – Varggoth*
Vocals, Lead Guitar – Astargh
CD1


Nokturnal Mortum - Коловорот (Live)(2CD) (2011) [FLAC] | Folk Symphonic Black Metal


Треклист:

1. Інтро - 03:17
2. Голос cталі - 09:58
3. Валькирия - 10:27
4. Україна - 08:05
5. Біла вежа - 12:09
6. В огне деревянных церквей - 06:45
7. Небесное серебро Перуна - 07:46

Тривалість: 00:58:30
ЛОГ ЕАС CD1
Exact Audio Copy V1.0 beta 3 from 29. August 2011

EAC extraction logfile from 26. December 2011, 21:21

Nokturnal Mortum / Kolovorot (CD1)

Used drive : ASUS DRW-24B3ST Adapter: 3 ID: 1

Read mode : Secure
Utilize accurate stream : Yes
Defeat audio cache : Yes
Make use of C2 pointers : No

Read offset correction : 6
Overread into Lead-In and Lead-Out : No
Fill up missing offset samples with silence : Yes
Delete leading and trailing silent blocks : No
Null samples used in CRC calculations : Yes
Used interface : Native Win32 interface for Win NT & 2000

Used output format : User Defined Encoder
Selected bitrate : 128 kBit/s
Quality : High
Add ID3 tag : No
Command line compressor : C:\Program Files\FLAC\flac.exe
Additional command line options : -V -8 -T "Date=%year%" -T "Genre=%genre%" %source%

TOC of the extracted CD

Track | Start | Length | Start sector | End sector
---------------------------------------------------------
1 | 0:00.00 | 3:17.06 | 0 | 14780
2 | 3:17.06 | 9:58.11 | 14781 | 59641
3 | 13:15.17 | 10:27.56 | 59642 | 106722
4 | 23:42.73 | 8:04.74 | 106723 | 143096
5 | 31:47.72 | 12:09.69 | 143097 | 197840
6 | 43:57.66 | 6:45.63 | 197841 | 228278
7 | 50:43.54 | 7:46.06 | 228279 | 263234

Range status and errors

Selected range

Filename C:\Users\vvb05\Desktop\Аудио\Nokturnal Mortum - Kolovorot (CD1).wav

Peak level 98.9 %
Extraction speed 5.7 X
Range quality 100.0 %
Test CRC 4D3DCF61
Copy CRC 4D3DCF61
Copy OK

No errors occurred

AccurateRip summary

Track 1 not present in database
Track 2 not present in database
Track 3 not present in database
Track 4 not present in database
Track 5 not present in database
Track 6 not present in database
Track 7 not present in database

None of the tracks are present in the AccurateRip database

End of status report

==== Log checksum 58EB2FF041B68F6C078151F5BD50AFBD82374570126A60F091C4FE1D341AF479 ====
CD2


Nokturnal Mortum - Коловорот (Live)(2CD) (2011) [FLAC] | Folk Symphonic Black Metal


Треклист:

1. Black Moon Overture - 04:51
2. Мировоззрение - 08:35
3. Новая эра мечей - 07:55
4. Слава Героям - 08:38
5. Черный ворон - 07:45
6. Моєї мрії острови - 13:42
7. Коляда - 05:59
8. Небо сумних ночей / Outr - 05:09

Тривалість: 01:02:38
ЛОГ ЕАС CD2
Exact Audio Copy V1.0 beta 3 from 29. August 2011

EAC extraction logfile from 26. December 2011, 21:46

Nokturnal Mortum / Kolovorot (CD2)

Used drive : ASUS DRW-24B3ST Adapter: 3 ID: 1

Read mode : Secure
Utilize accurate stream : Yes
Defeat audio cache : Yes
Make use of C2 pointers : No

Read offset correction : 6
Overread into Lead-In and Lead-Out : No
Fill up missing offset samples with silence : Yes
Delete leading and trailing silent blocks : No
Null samples used in CRC calculations : Yes
Used interface : Native Win32 interface for Win NT & 2000

Used output format : User Defined Encoder
Selected bitrate : 128 kBit/s
Quality : High
Add ID3 tag : No
Command line compressor : C:\Program Files\FLAC\flac.exe
Additional command line options : -V -8 -T "Date=%year%" -T "Genre=%genre%" %source%

TOC of the extracted CD

Track | Start | Length | Start sector | End sector
---------------------------------------------------------
1 | 0:00.00 | 4:51.07 | 0 | 21831
2 | 4:51.07 | 8:35.24 | 21832 | 60480
3 | 13:26.31 | 7:55.64 | 60481 | 96169
4 | 21:22.20 | 8:38.65 | 96170 | 135084
5 | 30:01.10 | 7:45.60 | 135085 | 170019
6 | 37:46.70 | 13:42.21 | 170020 | 231690
7 | 51:29.16 | 5:59.26 | 231691 | 258641
8 | 57:28.42 | 5:09.36 | 258642 | 281852

Range status and errors

Selected range

Filename C:\Users\vvb05\Desktop\Аудио\Nokturnal Mortum - Kolovorot (CD2).wav

Peak level 98.9 %
Extraction speed 5.9 X
Range quality 100.0 %
Test CRC A4C7DA3F
Copy CRC A4C7DA3F
Copy OK

No errors occurred

AccurateRip summary

Track 1 not present in database
Track 2 not present in database
Track 3 not present in database
Track 4 not present in database
Track 5 not present in database
Track 6 not present in database
Track 7 not present in database
Track 8 not present in database

None of the tracks are present in the AccurateRip database

End of status report

==== Log checksum 922B955E303AE945DC6E6BCF9A97578BD949C60EAE291B10DB41D4EE41E28357 ====
Тривалість: 02:10:11
Мова: інструментальні композиції 1 (CD1,2), українська 2,4,5 (CD1), 4,6-8 (CD2), російська 3,6,7 (CD1), 2,3,5 (CD2)
Аудіо-кодек: FLAC
Бітрейт: 1079 кб/с
Джерело: iнтернет
Додаткова інформація:
Примітки
- Deluxe 2 CD Digipack with 36-page booklet.
- Live, December 25 2010, recorded at the Kolovorot Festival Ⅻ, Kharkiv, Ukraine.


Срібний реліз (на рейтинг впливає 50% завантаженого)
 Трекер:    Зареєстрований   

Завантажити / скачати українську музику



відео для новачків



 Зареєстрований:   2015-09-09 20:17
 Розмір:   935 MB 
 Оцінка музики:   9.5/10 (Голосів: 4)
   
Ваш часовий пояс: GMT + 2 Години

Нова тема   Відповісти