Буші роуд/ 熱風海陸ブシロードNeppu Kairiku Bushi Road (2013) 1080p Ukr/Jap

Нові коментарі

Нова тема   Відповісти
Автор Повідомлення
Patlati Продакшнз 
Частий відвідувач


З нами з: 09.01.12
Востаннє: 16.03.17
Повідомлень: 35

2015-09-02 03:08  
Буші роуд/ 熱風海陸ブシロードNeppu Kairiku Bushi Road (2013) 1080p Ukr/Jap


Буші роуд/ 熱風海陸ブシロードNeppu Kairiku Bushi Road (2013) 1080p Ukr/Jap

Жанр: пригоди, фентезі, меха, постапокаліпсис
Країна: Японія


6.34 (317 голосів)

Кінокомпанія: Bandai Visual Company, Broccoli, Bushiroad
Режисер: Сакой Масаюкі
Ролі озвучують: Хан Мегумі, Кенн, Торіумі Косуке, Саекі Томо.

Сюжет:
Людська цивілізація на межі знищення. Розпорошені по дну висохлих океанів та морів поодинокі міста-замки воюють одне з одним за ресурси. Юна принцеса Ісе рятується втечею з приреченого міста, на яке напали вороги людства - монстри "Шінобі". У супроводі охоронця та кількох вірних слуг вона вирушає на пошук легендарної зброї, яка може допомогти знищити шінобі.


Тривалість: 01:33:30
Якість:
Відео:
кодек:
розмір кадру: 1920 х1080
бітрейт: 1784 кб/с

Аудіо # 1:
мова: українська
переклад: багатоголосий закадровий (Patlati Продакшнз)
кодек: АС3 2.0
бітрейт: 640 кб/с

Аудіо # 2:
мова: японська
переклад: оригінал
кодек: АС3 2.0
бітрейт: 640 кб/с

Джерело озвучення:

Ролі озвучили: Nata, Elvira, Zirko, Oni, Ito
Info
D:\VIDEO\Bushi\Bushi road_ukr [Patlati Productions]1080p.
General
Unique ID : 207096667426378511286655900128402542106 (0x9BCD5E088C326E2CBD57D39BFEA90E1A)
Complete name : D:\VIDEO\Bushi\Bushi road_ukr [Patlati Productions]1080p.
Format :
Format version : Version 2
File size : 2.05 GiB
Duration : 1h 33mn
Overall bit rate : 3 126 Kbps
Encoded date : UTC 2015-06-19 08:23:16
Writing application : mkvmerge v3.2.0 ('Beginnings') built on Feb 12 2010 16:46:17
Writing library : libebml v0.7.9 + libmatroska v0.8.1
Video #1
ID : 1
Format : AVC
Format/Info : Advanced Video Codec
Format profile : High [email protected]
Format settings, CABAC : Yes
Format settings, ReFrames : 14 frames
Codec ID : V_MPEG4/ISO/AVC
Duration : 1h 33mn
Bit rate : 1 784 Kbps
Width : 1 920 pixels
Height : 1 080 pixels
Display aspect ratio : 16:9
Frame rate mode : Constant
Frame rate : 23.976 fps
Color space : YUV
Chroma subsampling : 4:2:0
Bit depth : 10 bits
Scan type : Progressive
Bits/(Pixel*Frame) : 0.036
Stream size : 1.17 GiB (57%)
Title : Rip by [email protected]
Writing library : core 140 r2377+40 929f149 tMod [[email protected]:2:0 X86_64]
Encoding settings : cabac=1 / ref=14 / deblock=1:-2:-2 / analyse=0x3:0x133 / me=umh / subme=10 / psy=1 / fade_compensate=0.00 / psy_rd=0.60:0.20 / mixed_ref=1 / me_range=24 / chroma_me=1 / trellis=2 / 8x8dct=1 / cqm=0 / deadzone=21,11 / fast_pskip=0 / chroma_qp_offset=-3 / threads=12 / lookahead_threads=2 / sliced_threads=0 / nr=0 / decimate=1 / interlaced=0 / bluray_compat=0 / constrained_intra=0 / fgo=0 / bframes=8 / b_pyramid=2 / b_adapt=2 / b_bias=0 / direct=3 / weightb=1 / open_gop=0 / weightp=2 / keyint=480 / keyint_min=1 / scenecut=40 / intra_refresh=0 / rc_lookahead=72 / rc=crf / mbtree=1 / crf=17.5000 / qcomp=0.80 / qpmin=0:0:0 / qpmax=81:81:81 / qpstep=5 / ip_ratio=1.40 / aq=4:0.80 / aq-sensitivity=10.00 / aq-factor=1.00:1.00:1.00 / aq2=0 / aq3=0
Language : Japanese
Default : Yes
Forced : Yes
Color primaries : BT.709
Transfer characteristics : BT.709
Matrix coefficients : BT.709
Audio #2
ID : 2
Format : AC-3
Format/Info : Audio Coding 3
Mode extension : CM (complete main)
Format settings, Endianness : Big
Codec ID : A_AC3
Duration : 1h 33mn
Bit rate mode : Constant
Bit rate : 640 Kbps
Channel(s) : 2 channels
Channel positions : Front: L R
Sampling rate : 48.0 KHz
Bit depth : 16 bits
Compression mode : Lossy
Stream size : 430 MiB (20%)
Language : Ukrainian
Default : Yes
Forced : No
Audio #3
ID : 3
Format : AC-3
Format/Info : Audio Coding 3
Mode extension : CM (complete main)
Format settings, Endianness : Big
Codec ID : A_AC3
Duration : 1h 33mn
Bit rate mode : Constant
Bit rate : 640 Kbps
Channel(s) : 2 channels
Channel positions : Front: L R
Sampling rate : 48.0 KHz
Bit depth : 16 bits
Compression mode : Lossy
Stream size : 430 MiB (20%)
Language : Japanese
Default : No
Forced : No
Скріншоти









Джерело озвучення:
Patlati Продакшнз

Особиста оцінка: 10 - без зайвих вагань рекомендую всім!


Авторський реліз (завантажувати можна без реєстрації)
 Трекер:    Зареєстрований   

Завантажити / скачати аніме українською



відео для новачків



 Зареєстрований:   2015-09-02 03:08
 Розмір:   2.05 GB 
 Оцінка аніме:   10/10 (Голосів: 5)
   
Ваш часовий пояс: GMT + 2 Години

Нова тема   Відповісти