Снігова королева / Снежная королева (2012) 720p Ukr/Rus

Нові коментарі

Нова тема   Відповісти
Автор Повідомлення
Anonymous 







2015-08-27 21:32  
Снігова королева / Снежная королева (2012) 720p Ukr/Rus

Снігова королева / Снежная королева (2012) 720p Ukr/Rus


Жанр: анімація, фентезі, пригодницький, сімейний, казка
Країна: Росія



Кінокомпанія: Inlay Film, Wizart Animation
Режисер: Максим Свєшніков / Maksim Sveshnikov, Владлен Барбе / Vladlen Barbe
Актори: Нюша Шурочкіна / Anna Shurochkina, Іван Охлобистін / Ivan Okhlobystin, Галина Тюніна / Galina Tyunina, Дмитрій Нагієв / Dmitriy Nagiev, Ліза Арзамасова / Elizaveta Arzamasova, Людмила Артем'єва / Lyudmila Artemeva, Юрій Стоянов / Yuriy Stoyanov, Анна Ардова / Anna Ardova, Раміля Іскандер / Ramilya Iskander, Ольга Шорохова / Olga Shorokhova та інші

Сюжет:
У прагненні створити Новий світ - холодний і практичний, де чіткість ліній покликана замінити емоції, а північний вітер повинен остудити людські душі, Снігова королева позбавляється від всіх представників творчих професій. Маленькій і сміливій Ґерді, що вирушила в небезпечну подорож, щоб врятувати свого брата Кая, належить зіткнутися з цим холодним світом Снігової королеви. Долаючи труднощі та перешкоди на шляху до своєї мети, Ґерда не тільки знаходить сім'ю, але і віру в себе, знаходить підтримку нових друзів.


Рейтинг MPAA: PG - рекомендується присутність батьків
Вікова категорія: 0+

Тривалість: 01:16:00
Якість: 720p
Відео:
кодек:
розмір кадру: 1280 х 720
бітрейт: 4930 кбіт/с [crf=16]

Аудіо # 1:
мова: українська
переклад: професійний дубльований
кодек: 2.0
бітрейт: 192 кбіт/с
Інформація про дубляж
Ролі дублювали: Володимир Зеленський - від автора, Лідія Муращенко, Андрій Твердак, Ольга Сумська, Олег Лепенець, Дмитро Завадський, Анатолій Зіновенко, Павло Скороходько та інші
Аудіо # 2:
мова: російська
переклад: оригінал
кодек: 5.1
бітрейт: 1510 кбіт/с

Збережено оригінальні розділи, як на Blu-ray.
Info та log
Код:
General
Unique ID                   : 209207595358522148191849949828258823599 (0x9D63EAD0DBB04CCBB728099BA8617DAF)
Complete name               : Снежная королева (2012) [Ukr,Rus] 720p [Hurtom & HDClub].
Format                      :
Format version              : Version 4 / Version 2
File size                   : 3.59 GiB
Duration                    : 1h 16mn
Overall bit rate            : 6 767 Kbps
Movie name                  : Снігова королева / Снежная королева (2012) [Ukr,Rus] 720p [Hurtom & HDClub]
Encoded date                : UTC 2015-08-27 17:31:14
Writing application         : mkvmerge v8.3.0 ('Over the Horizon') 64bit
Writing library             : libebml v1.3.1 + libmatroska v1.4.2
Attachements                : cover.jpg / x264log.txt
DURATION                    : 01:16:00.672000000
NUMBER_OF_FRAMES            : 142521
NUMBER_OF_BYTES             : 109456128
_STATISTICS_WRITING_APP     : mkvmerge v8.3.0 ('Over the Horizon') 64bit
_STATISTICS_WRITING_DATE_UT : 2015-08-27 17:31:14
_STATISTICS_TAGS            : BPS DURATION NUMBER_OF_FRAMES NUMBER_OF_BYTES

Video
ID                          : 1
Format                      : AVC
Format/Info                 : Advanced Video Codec
Format profile              : [email protected]
Format settings, CABAC      : Yes
Format settings, ReFrames   : 9 frames
Codec ID                    : V_MPEG4/ISO/AVC
Duration                    : 1h 16mn
Bit rate                    : 4 930 Kbps
Width                       : 1 280 pixels
Height                      : 720 pixels
Display aspect ratio        : 16:9
Frame rate mode             : Constant
Frame rate                  : 24.000 fps
Color space                 : YUV
Chroma subsampling          : 4:2:0
Bit depth                   : 8 bits
Scan type                   : Progressive
Bits/(Pixel*Frame)          : 0.223
Stream size                 : 2.62 GiB (73%)
Title                       : Снігова королева / Снежная королева (2012) 720p [HDClub-xmad]
Writing library             : core 129 r2245 bc13772
Encoding settings           : cabac=1 / ref=9 / deblock=1:-1:-1 / analyse=0x3:0x133 / me=tesa / subme=11 / psy=1 / psy_rd=0.80:0.00 / mixed_ref=1 / me_range=32 / chroma_me=1 / trellis=2 / 8x8dct=1 / cqm=0 / deadzone=21,11 / fast_pskip=0 / chroma_qp_offset=-2 / threads=12 / lookahead_threads=2 / sliced_threads=0 / nr=0 / decimate=1 / interlaced=0 / bluray_compat=0 / constrained_intra=0 / bframes=9 / b_pyramid=2 / b_adapt=2 / b_bias=0 / direct=3 / weightb=1 / open_gop=0 / weightp=2 / keyint=240 / keyint_min=24 / scenecut=40 / intra_refresh=0 / rc=crf / mbtree=0 / crf=16.0 / qcomp=0.60 / qpmin=0 / qpmax=69 / qpstep=4 / ip_ratio=1.40 / pb_ratio=1.30 / aq=1:0.80
Language                    : Russian
Default                     : Yes
Forced                      : No
Color range                 : Limited
Color primaries             : BT.709
Transfer characteristics    : BT.709
Matrix coefficients         : BT.709
DURATION                    : 01:16:00.667000000
NUMBER_OF_FRAMES            : 109456
NUMBER_OF_BYTES             : 2885625250
_STATISTICS_WRITING_APP     : mkvmerge v8.3.0 ('Over the Horizon') 64bit
_STATISTICS_WRITING_DATE_UT : 2015-08-27 17:31:14
_STATISTICS_TAGS            : BPS DURATION NUMBER_OF_FRAMES NUMBER_OF_BYTES

Audio #1
ID                          : 2
Format                      : AC-3
Format/Info                 : Audio Coding 3
Mode extension              : CM (complete main)
Format settings, Endianness : Big
Codec ID                    : A_AC3
Duration                    : 1h 16mn
Bit rate mode               : Constant
Bit rate                    : 192 Kbps
Channel(s)                  : 2 channels
Channel positions           : Front: L R
Sampling rate               : 48.0 KHz
Compression mode            : Lossy
Stream size                 : 104 MiB (3%)
Title                       : Dub [1+1] 2.0 192 kbps [Hurtom-omm,xslim]
Language                    : Ukrainian
Default                     : Yes
Forced                      : No

Audio #2
ID                          : 3
Format                      :
Format/Info                 : Digital Theater Systems
Mode                        : 16
Format settings, Endianness : Big
Codec ID                    : A_DTS
Duration                    : 1h 16mn
Bit rate mode               : Constant
Bit rate                    : 1 510 Kbps
Channel(s)                  : 6 channels
Channel positions           : Front: L C R, Side: L R, LFE
Sampling rate               : 48.0 KHz
Bit depth                   : 24 bits
Compression mode            : Lossy
Stream size                 : 821 MiB (22%)
Title                       : Original 5.1 1510 kbps
Default                     : No
Forced                      : No

Menu
00:00:00.000                : :Chapter 01
00:09:25.291                : :Chapter 02
00:22:49.625                : :Chapter 03
00:31:46.166                : :Chapter 04
00:46:44.833                : :Chapter 05
01:00:24.333                : :Chapter 06


Код:
frame I:954   Avg QP:13.57  size:174317
frame P:29248 Avg QP:15.80  size: 47344
frame B:79254 Avg QP:18.54  size: 16840
consecutive B-frames:  4.7%  5.3% 16.9% 26.1% 12.6% 29.6%  2.0%  1.2%  0.6%  0.9%
Оригінал <----------> Ріп








Джерела та подяки: &
ріп відео, оригінальні звук та субтитри - xmad (HDClub); українська доріжка - omm - зведення, xslim - запис з ТБ; українізований постер - Vendik (всі - Гуртом).



ЗАЛИШАЙТЕСЬ ЯКОМОГА ДОВШЕ НА РОЗДАЧІ!

СКАЧАВ САМ - ДАЙ СКАЧАТИ ІНШИМ


 Трекер:    Зареєстрований   

Завантажити / скачати мультфільм українською



відео для новачків



 Зареєстрований:   2015-08-27 21:32
 Розмір:   3.59 GB 
 Оцінка мультфільму:   4.2/10 (Голосів: 28)
   
Інші релізи
Ваш часовий пояс: GMT + 2 Години

Нова тема   Відповісти