Втеча з курника / Chicken Run (2000) 1080p Ukr/Eng | Sub Eng/Ger

Нові коментарі

Нова тема   Відповісти
Автор Повідомлення
Anonymous 







2015-08-24 09:23  
Втеча з курника / Chicken Run (2000) 1080p Ukr/Eng | Sub Eng/Ger

Втеча з курника / Chicken Run (2000) 1080p Ukr/Eng | Sub Eng/Ger

Оригінальні постери




повнорозмірні зображення відкриються по кліку (з натиснутим CTRL чи кліком середньою кнопкою мишки - у іншій вкладці)


Жанр: анімація, комедія, сімейний
Країна: Велика Британія, США



Кінокомпанія: DreamWorks Animation, Pathé, Aardman Animations
Режисер: Пітер Лорд / Peter Lord, Нік Парк / Nick Park
Актори: Філ Деніелс / Phil Daniels, Лін Ферґюсон / Lynn Ferguson, Мел Ґібсон / Mel Gibson, Тоні Гейґарт / Tony Haygarth, Джейн Горокс / Jane Horrocks, Міранда Річардсон / Miranda Richardson, Джулія Савалія / Julia Sawalha, Тімоті Спол / Timothy Spall, Імелда Стонтон / Imelda Staunton, Бенджамін Вітроу / Benjamin Whitrow та інші

Сюжет:
Курочкам на фермі місіс Твід доводиться не легко. Для кожної з цих нещасних пташок будь-який, навіть найбільш погожий ранок, може стати останнім: будь-якої миті вони можуть потрапити в суп або стати начинкою для пиріжка. Покірливі домашні пташки живуть в постійному страху в жахливих курниках, що нагадують бараки концтабору. Всі спроби вирватися із страшної ферми на волю закінчуються провалом. Але одного разу на фермі з'явився веселий американський півень Роккі...


Рейтинг MPAA: G - нема вікових обмежень
Вікова категорія: 0+

Тривалість: 01:24:36
Якість: 1080p [CHD]
Відео:
кодек:
розмір кадру: 1920 х 1080
бітрейт: 8909 кбіт/с

Аудіо # 1:
мова: українська
переклад: багатоголосий закадровий
ролі озвучили: Олег Лепенець, Олесь Гімбаржевський, Євген Пашин, Дмитро Завадський, Павло Скороходько, Андрій Твердак та інші
кодек: 2.0
бітрейт: 192 кбіт/с

Аудіо # 2:
мова: англійська
переклад: оригінал
кодек: -ES 6.1
бітрейт: 1509 кбіт/с

Субтитри # 1:
мова: українська (форсовані)
тип: програмні (м'які)
формат: *.srt
примітка (igor911): на неозвучений діалог та епізод у прикінцевих титрах, власний переклад з російської

Субтитри # 2-3:
мова: англійська, німецька
тип: програмні (м'які)
формат: *.srt

Збережено оригінальні розділи, як на Blu-ray.
Info
Код:
General
Unique ID                   : 193417894777684166918669661683352517903 (0x9182EE78F6D9D77DB590C6753442BD0F)
Complete name               : Chicken Run (2000) [Ukr,Eng sub.Eng,Ger] 1080p [Hurtom].
Format                      :
Format version              : Version 4 / Version 2
File size                   : 6.27 GiB
Duration                    : 1h 24mn
Overall bit rate            : 10.6 Mbps
Movie name                  : Втеча з курника / Chicken Run (2000) [Ukr,Eng sub.Eng,Ger] 1080p [Hurtom]
Encoded date                : UTC 2015-08-24 10:54:13
Writing application         : mkvmerge v8.3.0 ('Over the Horizon') 64bit
Writing library             : libebml v1.3.1 + libmatroska v1.4.2
Attachements                : cover.jpg
DURATION                    : 01:21:10.999000000
NUMBER_OF_FRAMES            : 779
NUMBER_OF_BYTES             : 31004
_STATISTICS_WRITING_APP     : mkvmerge v8.3.0 ('Over the Horizon') 64bit
_STATISTICS_WRITING_DATE_UT : 2015-08-24 10:54:13
_STATISTICS_TAGS            : BPS DURATION NUMBER_OF_FRAMES NUMBER_OF_BYTES

Video
ID                          : 1
Format                      : AVC
Format/Info                 : Advanced Video Codec
Format profile              : [email protected]
Format settings, CABAC      : Yes
Format settings, ReFrames   : 4 frames
Codec ID                    : V_MPEG4/ISO/AVC
Duration                    : 1h 24mn
Bit rate                    : 8 909 Kbps
Width                       : 1 920 pixels
Height                      : 1 080 pixels
Display aspect ratio        : 16:9
Frame rate mode             : Constant
Frame rate                  : 24.000 fps
Color space                 : YUV
Chroma subsampling          : 4:2:0
Bit depth                   : 8 bits
Scan type                   : Progressive
Bits/(Pixel*Frame)          : 0.179
Stream size                 : 5.14 GiB (82%)
Title                       : Втеча з курника / Chicken Run / Побег из курятника (2000) 1080p [CHD]
Writing library             : core 104 r1703 cd21d05
Encoding settings           : cabac=1 / ref=4 / deblock=1:-3:-3 / analyse=0x3:0x113 / me=umh / subme=9 / psy=1 / psy_rd=1.05:0.10 / mixed_ref=1 / me_range=32 / chroma_me=1 / trellis=2 / 8x8dct=1 / cqm=0 / deadzone=21,11 / fast_pskip=0 / chroma_qp_offset=-2 / threads=6 / sliced_threads=0 / nr=0 / decimate=1 / interlaced=0 / constrained_intra=0 / bframes=5 / b_pyramid=2 / b_adapt=2 / b_bias=0 / direct=3 / weightb=1 / open_gop=0 / weightp=2 / keyint=250 / keyint_min=24 / scenecut=40 / intra_refresh=0 / rc_lookahead=60 / rc=2pass / mbtree=1 / bitrate=8909 / ratetol=2.0 / qcomp=0.70 / qpmin=10 / qpmax=51 / qpstep=4 / cplxblur=20.0 / qblur=0.5 / vbv_maxrate=40000 / vbv_bufsize=30000 / ip_ratio=1.40 / aq=1:0.90 / nal_hrd=none
Language                    : English
Default                     : Yes
Forced                      : No
DURATION                    : 01:24:36.242000000
NUMBER_OF_FRAMES            : 121830
NUMBER_OF_BYTES             : 5647457048
_STATISTICS_WRITING_APP     : mkvmerge v8.3.0 ('Over the Horizon') 64bit
_STATISTICS_WRITING_DATE_UT : 2015-08-24 10:54:13
_STATISTICS_TAGS            : BPS DURATION NUMBER_OF_FRAMES NUMBER_OF_BYTES

Audio #1
ID                          : 2
Format                      : AC-3
Format/Info                 : Audio Coding 3
Mode extension              : CM (complete main)
Format settings, Endianness : Big
Codec ID                    : A_AC3
Duration                    : 1h 24mn
Bit rate mode               : Constant
Bit rate                    : 192 Kbps
Channel(s)                  : 2 channels
Channel positions           : Front: L R
Sampling rate               : 48.0 KHz
Compression mode            : Lossy
Stream size                 : 116 MiB (2%)
Title                       : MVO [TET] 2.0 192 kbps [Hurtom-omm]
Language                    : Ukrainian
Default                     : Yes
Forced                      : No

Audio #2
ID                          : 3
Format                      :
Format/Info                 : Digital Theater Systems
Format profile              : ES
Mode                        : 16
Format settings, Endianness : Big
Codec ID                    : A_DTS
Duration                    : 1h 24mn
Bit rate mode               : Constant
Bit rate                    : 1 509 Kbps
Channel(s)                  : 7 channels / 6 channels
Channel positions           : Front: L C R, Side: L R, Back: C, LFE / Front: L C R, Side: L R, LFE
Sampling rate               : 48.0 KHz
Bit depth                   : 24 bits
Compression mode            : Lossy
Stream size                 : 913 MiB (14%)
Title                       : Original -ES 6.1 1509 kbps
Language                    : English
Default                     : No
Forced                      : No

Text #1
ID                          : 4
Format                      : UTF-8
Codec ID                    : S_TEXT/UTF8
Codec ID/Info               : UTF-8 Plain Text
Title                       : Ukr forced [Hurtom-igor911]
Language                    : Ukrainian
Default                     : Yes
Forced                      : No

Text #2
ID                          : 5
Format                      : UTF-8
Codec ID                    : S_TEXT/UTF8
Codec ID/Info               : UTF-8 Plain Text
Title                       : Eng full
Language                    : English
Default                     : No
Forced                      : No

Text #3
ID                          : 6
Format                      : UTF-8
Codec ID                    : S_TEXT/UTF8
Codec ID/Info               : UTF-8 Plain Text
Title                       : Ger full
Language                    : German
Default                     : No
Forced                      : No

Menu
00:00:00.000                : en:00:00:00.000
00:07:30.875                : en:00:07:30.875
00:13:03.500                : en:00:13:03.500
00:18:27.083                : en:00:18:27.083
00:26:25.917                : en:00:26:25.917
00:33:35.750                : en:00:33:35.750
00:40:30.208                : en:00:40:30.208
00:47:52.417                : en:00:47:52.417
00:56:15.583                : en:00:56:15.583
01:06:39.958                : en:01:06:39.958
01:16:51.417                : en:01:16:51.417
01:19:31.750                : en:01:19:31.750




Джерела та подяки:
ріп відео, оригінальні звук та субтитри - CHD (CHDbits); українська доріжка - omm - зведення, slavik_v_z, POMEO, baron91 - запис з ТБ; українські форсовані субтитри - igor911, фільмографії акторів та інформація про озвучення - Віктор, український постер - valiko_b (всі - Гуртом).

Особиста оцінка: 8 - рекомендую всім дітям та їх батькам





ЗАЛИШАЙТЕСЬ ЯКОМОГА ДОВШЕ НА РОЗДАЧІ!

СКАЧАВ САМ - ДАЙ СКАЧАТИ ІНШИМ


Срібний реліз (на рейтинг впливає 50% завантаженого)
 Трекер:    Зареєстрований   

Завантажити / скачати мультфільм українською



відео для новачків



 Зареєстрований:   2015-08-24 14:33
 Розмір:   6.27 GB 
 Оцінка мультфільму:   5.8/10 (Голосів: 22)
   
Інші релізи
   Втеча з курника / Chicken Run (2000) 720p Ukr/Eng | Sub Eng/Ger igor911  4 / 1   4.48 GB   2015-08-24 13:36 
   Втеча з курника / Chicken Run (2000) Ukr/Eng | Sub Eng omm  11 / 0   1.45 GB   2015-08-23 14:53 
кандыба 
Новенький


З нами з: 18.11.16
Востаннє: 26.11.16
Повідомлень: 4

2016-11-20 19:59  
Дуже дякую. давно шукаю.
Ваш часовий пояс: GMT + 2 Години

Нова тема   Відповісти