Втеча з курника / Chicken Run (2000) 720p Ukr/Eng | Sub Eng/Ger

Нові коментарі

Нова тема   Відповісти
Автор Повідомлення
Anonymous 







2015-08-24 09:22  
Втеча з курника / Chicken Run (2000) 720p Ukr/Eng | Sub Eng/Ger

Втеча з курника / Chicken Run (2000) 720p Ukr/Eng | Sub Eng/Ger

Оригінальні постери




повнорозмірні зображення відкриються по кліку (з натиснутим CTRL чи кліком середньою кнопкою мишки - у іншій вкладці)


Жанр: анімація, комедія, сімейний
Країна: Велика Британія, США



Кінокомпанія: DreamWorks Animation, Pathé, Aardman Animations
Режисер: Пітер Лорд / Peter Lord, Нік Парк / Nick Park
Актори: Філ Деніелс / Phil Daniels, Лін Ферґюсон / Lynn Ferguson, Мел Ґібсон / Mel Gibson, Тоні Гейґарт / Tony Haygarth, Джейн Горокс / Jane Horrocks, Міранда Річардсон / Miranda Richardson, Джулія Савалія / Julia Sawalha, Тімоті Спол / Timothy Spall, Імелда Стонтон / Imelda Staunton, Бенджамін Вітроу / Benjamin Whitrow та інші

Сюжет:
Курочкам на фермі місіс Твід доводиться не легко. Для кожної з цих нещасних пташок будь-який, навіть найбільш погожий ранок, може стати останнім: будь-якої миті вони можуть потрапити в суп або стати начинкою для пиріжка. Покірливі домашні пташки живуть в постійному страху в жахливих курниках, що нагадують бараки концтабору. Всі спроби вирватися із страшної ферми на волю закінчуються провалом. Але одного разу на фермі з'явився веселий американський півень Роккі...


Рейтинг MPAA: G - нема вікових обмежень
Вікова категорія: 0+

Тривалість: 01:24:36
Якість: 720p
Відео:
кодек:
розмір кадру: 1280 х 720
бітрейт: 5884 кбіт/с

Аудіо # 1:
мова: українська
переклад: багатоголосий закадровий
ролі озвучили: Олег Лепенець, Олесь Гімбаржевський, Євген Пашин, Дмитро Завадський, Павло Скороходько, Андрій Твердак та інші
кодек: 2.0
бітрейт: 192 кбіт/с

Аудіо # 2:
мова: англійська
переклад: оригінал
кодек: -ES 6.1
бітрейт: 1509 кбіт/с

Субтитри # 1:
мова: українська (форсовані)
тип: програмні (м'які)
формат: *.srt
примітка (igor911): на неозвучений діалог та епізод у прикінцевих титрах, власний переклад з російської

Субтитри # 2-3:
мова: англійська, німецька
тип: програмні (м'які)
формат: *.srt

Збережено оригінальні розділи, як на Blu-ray.
Info
Код:
General
Unique ID                   : 249993382763536217382250391519890937785 (0xBC12F9639E2166168934A1864AB697B9)
Complete name               : Chicken Run (2000) [Ukr,Eng sub.Eng,Ger] 720p [Hurtom & HDClub].
Format                      :
Format version              : Version 4 / Version 2
File size                   : 4.48 GiB
Duration                    : 1h 24mn
Overall bit rate            : 7 586 Kbps
Movie name                  : Втеча з курника / Chicken Run (2000) [Ukr,Eng sub.Eng,Ger] 720p [Hurtom & HDClub]
Encoded date                : UTC 2015-08-24 09:48:07
Writing application         : mkvmerge v8.3.0 ('Over the Horizon') 64bit
Writing library             : libebml v1.3.1 + libmatroska v1.4.2
Attachements                : cover.jpg
DURATION                    : 00:01:04.210000000
NUMBER_OF_FRAMES            : 29
NUMBER_OF_BYTES             : 1305
_STATISTICS_WRITING_APP     : mkvmerge v8.3.0 ('Over the Horizon') 64bit
_STATISTICS_WRITING_DATE_UT : 2015-08-24 09:48:07
_STATISTICS_TAGS            : BPS DURATION NUMBER_OF_FRAMES NUMBER_OF_BYTES

Video
ID                          : 1
Format                      : AVC
Format/Info                 : Advanced Video Codec
Format profile              : [email protected]
Format settings, CABAC      : Yes
Format settings, ReFrames   : 9 frames
Codec ID                    : V_MPEG4/ISO/AVC
Duration                    : 1h 24mn
Bit rate                    : 5 884 Kbps
Width                       : 1 280 pixels
Height                      : 720 pixels
Display aspect ratio        : 16:9
Frame rate mode             : Constant
Frame rate                  : 24.000 fps
Color space                 : YUV
Chroma subsampling          : 4:2:0
Bit depth                   : 8 bits
Scan type                   : Progressive
Bits/(Pixel*Frame)          : 0.266
Stream size                 : 3.39 GiB (76%)
Title                       : Втеча з курника / Chicken Run / Побег из курятника (2000) 720p [HDClub-Skoped]
Writing library             : core 107 r1766M f9f0035
Encoding settings           : cabac=1 / ref=9 / deblock=1:-2:-1 / analyse=0x3:0x133 / me=tesa / subme=10 / psy=1 / fade_compensate=0.00 / psy_rd=0.80:0.00 / mixed_ref=1 / me_range=24 / chroma_me=1 / trellis=2 / 8x8dct=1 / cqm=0 / deadzone=21,11 / fast_pskip=0 / chroma_qp_offset=-2 / threads=6 / sliced_threads=0 / nr=0 / decimate=0 / interlaced=0 / constrained_intra=0 / fgo=0 / bframes=7 / b_pyramid=2 / b_adapt=2 / b_bias=0 / direct=3 / weightb=1 / open_gop=0 / weightp=2 / keyint=250 / keyint_min=25 / scenecut=40 / intra_refresh=0 / rc=2pass / mbtree=0 / bitrate=5884 / ratetol=1.0 / qcomp=0.60 / qpmin=10 / qpmax=51 / qpstep=4 / cplxblur=20.0 / qblur=0.5 / ip_ratio=1.40 / pb_ratio=1.30 / aq=1:0.90
Language                    : English
Default                     : Yes
Forced                      : No
DURATION                    : 01:24:36.209000000
NUMBER_OF_FRAMES            : 121829
NUMBER_OF_BYTES             : 3732371786
_STATISTICS_WRITING_APP     : mkvmerge v8.3.0 ('Over the Horizon') 64bit
_STATISTICS_WRITING_DATE_UT : 2015-08-24 09:48:07
_STATISTICS_TAGS            : BPS DURATION NUMBER_OF_FRAMES NUMBER_OF_BYTES

Audio #1
ID                          : 2
Format                      : AC-3
Format/Info                 : Audio Coding 3
Mode extension              : CM (complete main)
Format settings, Endianness : Big
Codec ID                    : A_AC3
Duration                    : 1h 24mn
Bit rate mode               : Constant
Bit rate                    : 192 Kbps
Channel(s)                  : 2 channels
Channel positions           : Front: L R
Sampling rate               : 48.0 KHz
Compression mode            : Lossy
Stream size                 : 116 MiB (3%)
Title                       : MVO [TET] 2.0 192 kbps [Hurtom-omm]
Language                    : Ukrainian
Default                     : Yes
Forced                      : No

Audio #2
ID                          : 3
Format                      :
Format/Info                 : Digital Theater Systems
Format profile              : ES
Mode                        : 16
Format settings, Endianness : Big
Codec ID                    : A_DTS
Duration                    : 1h 24mn
Bit rate mode               : Constant
Bit rate                    : 1 509 Kbps
Channel(s)                  : 7 channels / 6 channels
Channel positions           : Front: L C R, Side: L R, Back: C, LFE / Front: L C R, Side: L R, LFE
Sampling rate               : 48.0 KHz
Bit depth                   : 24 bits
Compression mode            : Lossy
Stream size                 : 913 MiB (20%)
Title                       : Original -ES 6.1 1509 kbps
Language                    : English
Default                     : No
Forced                      : No

Text #1
ID                          : 4
Format                      : UTF-8
Codec ID                    : S_TEXT/UTF8
Codec ID/Info               : UTF-8 Plain Text
Title                       : Ukr forced
Language                    : Ukrainian
Default                     : Yes
Forced                      : No

Text #2
ID                          : 5
Format                      : UTF-8
Codec ID                    : S_TEXT/UTF8
Codec ID/Info               : UTF-8 Plain Text
Title                       : Eng full
Language                    : English
Default                     : No
Forced                      : No

Text #3
ID                          : 6
Format                      : UTF-8
Codec ID                    : S_TEXT/UTF8
Codec ID/Info               : UTF-8 Plain Text
Title                       : Ger full
Language                    : German
Default                     : No
Forced                      : No

Menu
00:00:00.000                : :00:00:00.000
00:07:30.875                : :00:07:30.875
00:13:03.500                : :00:13:03.500
00:18:27.083                : :00:18:27.083
00:26:25.917                : :00:26:25.917
00:33:35.750                : :00:33:35.750
00:40:30.208                : :00:40:30.208
00:47:52.417                : :00:47:52.417
00:56:15.583                : :00:56:15.583
01:06:39.958                : :01:06:39.958
01:16:51.417                : :01:16:51.417
01:19:31.750                : :01:19:31.750
Оригінал <----------> Ріп







Джерела та подяки: &
ріп відео, оригінальні звук та субтитри - Skoped (HDClub); українська доріжка - omm - зведення, slavik_v_z, POMEO, baron91 - запис з ТБ; українські форсовані субтитри - igor911, фільмографії акторів та інформація про озвучення - Віктор, український постер - valiko_b (всі - Гуртом).

Особиста оцінка: 8 - рекомендую всім дітям та їх батькам





ЗАЛИШАЙТЕСЬ ЯКОМОГА ДОВШЕ НА РОЗДАЧІ!

СКАЧАВ САМ - ДАЙ СКАЧАТИ ІНШИМ


Срібний реліз (на рейтинг впливає 50% завантаженого)
 Трекер:    Зареєстрований   

Завантажити / скачати мультфільм українською



відео для новачків



 Зареєстрований:   2015-08-24 13:36
 Розмір:   4.48 GB 
 Оцінка мультфільму:   5.5/10 (Голосів: 21)
   
Інші релізи
   Втеча з курника / Chicken Run (2000) 1080p Ukr/Eng | Sub Eng/Ger igor911  4 / 0   6.27 GB   2015-08-24 14:33 
   Втеча з курника / Chicken Run (2000) Ukr/Eng | Sub Eng omm  12 / 0   1.45 GB   2015-08-23 14:53 
MrRyanCooper 
VIP


З нами з: 24.08.12
Востаннє: 20.08.17
Повідомлень: 346

2016-10-07 21:02  
Як на мене, то класний мульт!
mur4v3y 
Новенький


З нами з: 31.10.15
Востаннє: 18.08.17
Повідомлень: 17

2017-07-15 12:51  
Сідери, відгукніться, будь ласка, половину завантажив, далі не йде
Ваш часовий пояс: GMT + 2 Години

Нова тема   Відповісти