Дорога додому: Неймовірна подорож / Homeward Bound: The Incredible Journey (1993) 720p 2xUkr/Eng | Sub Eng

Нові коментарі

Нова тема   Відповісти
Автор Повідомлення
Anonymous 







2015-08-23 20:12  
Дорога додому: Неймовірна подорож / Homeward Bound: The Incredible Journey (1993) 720p 2xUkr/Eng | Sub Eng

Дорога додому: Неймовірна подорож / Homeward Bound: The Incredible Journey (1993) 720p 2xUkr/Eng | Sub Eng

Оригінальні обкладинки та постери




повнорозмірні зображення відкриються по кліку (з натиснутим CTRL чи кліком середньою кнопкою мишки - у іншій вкладці)


Жанр: драма, комедія, пригодницький, сімейний
Країна: США



Кінокомпанія: Touchwood Pacific Partners 1, Walt Disney Pictures
Режисер: Двейн Данем / Duwayne Dunham
Актори: Майкл Джей Фокс / Michael J. Fox (озвучення в оригіналі), Дон Алдер / Don Alder, Ед Бернард / Ed Bernard, Кевін Чевалія / Kevin Chevalia, Вероніка Лорен / Veronica Lauren, Вуді Еней / Woody Eney, Кім Грайст / Kim Greist, Річ Гокінс / Rich Hawkins, Роберт Хейс / Robert Hays та інші

Сюжет:
Господарі двох собак та чарівної кішечки Сесі змушені на деякий час виїхати, тож віддають своїх вихованців на ранчо друга. Через деякий час тварини, які опинилися за сотні миль від улюбленого будинку, починають турбуватися, чи бува не трапились у господарів неприємності. Поміркувавши, весела трійця вирішує самостійно дістатися до дому і пускається в неймовірно небезпечну подорож по горах і пустелях...
Оригінальний трейлер:


Рейтинг MPAA: G - нема вікових обмежень
Вікова категорія: 6+

Тривалість: 01:24:25
Якість: 720p

Відео:
кодек:
розмір кадру: 1280 х 688
бітрейт: 4035 Кб/с

Аудіо #1:
мова: українська
переклад: багатоголосий закадровий | студія LeDoyen
кодек: 2.0 [стерео]
бітрейт: 192 кб/с
Інформація про озвучення:
Аудіо # 2:
мова: українська
переклад: багатоголосий закадровий
кодек: 2.0
бітрейт: 192 кбіт/с

Аудіо # 3:
мова: англійська
переклад: оригінал
кодек: 5.1
бітрейт: 384 кбіт/с

Субтитри:
мова: англійська
тип: програмні (м'які)
формат: *.srt

Збережено оригінальні розділи
Info
Код:
Complete name               : Homeward Bound. The Incredible Journey (1993) [2xUkr,Eng sub.Eng] 720p [Hurtom].
Format                      :
Format version              : Version 4
File size                   : 2.83 GiB
Duration                    : 1 h 24 min
Overall bit rate            : 4 805 kb/s
Movie name                  : Дорога додому: Неймовірна подорож / Homeward Bound. The Incredible Journey (1993) [2xUkr,Eng sub.Eng] 720p [Hurtom]
Encoded date                : UTC 2019-06-18 08:47:53
Writing application         : v34.0.0 ('Sight and Seen') 64-bit
Writing library             : libebml v1.3.7 + v1.5.0
Cover                       : Yes
Attachments                 : cover.jpg

Video
ID                          : 1
Format                      : AVC
Format/Info                 : Advanced Video Codec
Format profile              : [email protected]
Format settings             : 2 Ref Frames
Format settings, CABAC      : No
Format settings, Reference  : 2 frames
Format settings, GOP        : N=1
Codec ID                    : V_MPEG4/ISO/AVC
Duration                    : 1 h 24 min
Bit rate                    : 4 035 kb/s
Width                       : 1 280 pixels
Height                      : 688 pixels
Display aspect ratio        : 1.85:1
Frame rate mode             : Constant
Frame rate                  : 23.976 (23976/1000) FPS
Color space                 : YUV
Chroma subsampling          : 4:2:0
Bit depth                   : 8 bits
Scan type                   : Progressive
Bits/(Pixel*Frame)          : 0.191
Stream size                 : 2.38 GiB (84%)
Title                       : Дорога додому: Неймовірна подорож / Homeward Bound: The Incredible Journey (1993) 720p [HDClub]
Language                    : English
Default                     : Yes
Forced                      : No
Color range                 : Limited
Color primaries             : BT.709
Transfer characteristics    : BT.709
Matrix coefficients         : BT.709

Audio #1
ID                          : 2
Format                      : AC-3
Format/Info                 : Audio Coding 3
Commercial name             : Dolby Digital
Codec ID                    : A_AC3
Duration                    : 1 h 24 min
Bit rate mode               : Constant
Bit rate                    : 192 kb/s
Channel(s)                  : 2 channels
Channel layout              : L R
Sampling rate               : 48.0 kHz
Frame rate                  : 31.250 FPS (1536 SPF)
Bit depth                   : 16 bits
Compression mode            : Lossy
Stream size                 : 116 MiB (4%)
Title                       : MVO [LeDoyen], 2.0 [stereo] 192 Kbps
Language                    : Ukrainian
Service kind                : Complete Main
Default                     : Yes
Forced                      : No

Audio #2
ID                          : 3
Format                      : AC-3
Format/Info                 : Audio Coding 3
Commercial name             : Dolby Digital
Codec ID                    : A_AC3
Duration                    : 1 h 24 min
Bit rate mode               : Constant
Bit rate                    : 192 kb/s
Channel(s)                  : 2 channels
Channel layout              : L R
Sampling rate               : 48.0 kHz
Frame rate                  : 31.250 FPS (1536 SPF)
Bit depth                   : 16 bits
Compression mode            : Lossy
Stream size                 : 116 MiB (4%)
Title                       : MVO [K1] 2.0 192 kbps [Hurtom-igrik09]
Language                    : Ukrainian
Service kind                : Complete Main
Default                     : No
Forced                      : No

Audio #3
ID                          : 4
Format                      : AC-3
Format/Info                 : Audio Coding 3
Commercial name             : Dolby Digital
Codec ID                    : A_AC3
Duration                    : 1 h 24 min
Bit rate mode               : Constant
Bit rate                    : 384 kb/s
Channel(s)                  : 6 channels
Channel layout              : L R C LFE Ls Rs
Sampling rate               : 48.0 kHz
Frame rate                  : 31.250 FPS (1536 SPF)
Bit depth                   : 16 bits
Compression mode            : Lossy
Stream size                 : 232 MiB (8%)
Title                       : Original 5.1 384 kbps
Language                    : English
Service kind                : Complete Main
Default                     : No
Forced                      : No

Text
ID                          : 5
Format                      : UTF-8
Codec ID                    : S_TEXT/UTF8
Codec ID/Info               : UTF-8 Plain Text
Duration                    : 1 h 18 min
Bit rate                    : 71 b/s
Count of elements           : 1088
Stream size                 : 41.1 KiB (0%)
Language                    : English
Default                     : No
Forced                      : No

Menu
00:00:00.000                : en:1
00:00:17.000                : en:2
00:08:11.000                : en:3
00:12:44.000                : en:4
00:19:36.000                : en:5
00:30:17.000                : en:6
00:31:53.000                : en:7
00:38:36.000                : en:8
00:40:59.000                : en:9
00:47:30.000                : en:10
00:49:25.000                : en:11
00:51:14.000                : en:12
00:56:55.000                : en:13
01:02:32.000                : en:14
01:09:39.000                : en:15
01:14:19.000                : en:16
01:19:20.000                : en:17




Джерела та подяки: &
доріжка від LeDoyen - NemoInFire; доріжка з К1 та постер - igrik09; фільмографія - Віктор (всі - Гуртом).



18.06.2019 реліз оновлено - додано ліцензійну доріжку від LeDoyen


upd.2021 - незабаром планується оновлення релізу 5.1 укр. звуком від LeDoyen


Срібний реліз (на рейтинг впливає 50% завантаженого)
 Трекер:    Зареєстрований   

Завантажити / скачати фільм українською



відео для новачків



 Зареєстрований:   2019-06-18 11:08
 Розмір:   2.83 GB 
 Оцінка фільму:   5.7/10 (Голосів: 22)
 ЗАЛИШАЙТЕСЬ ЯКОМОГА ДОВШЕ НА РОЗДАЧІ! ЗАВАНТАЖИВ САМ - ДАЙ ЗАВАНТАЖИТИ ІНШИМ!
   
portsmuth 
Свій


З нами з: 10.06.14
Востаннє: 26.01.21
Повідомлень: 77

2019-04-23 00:10  
Чудовий дитячий фільм. В дитинстві любив дивитись
Electroz 
Відео Гуртом - підтримка та поширення
Відео Гуртом - підтримка та поширення


З нами з: 18.09.14
Востаннє: 28.01.21
Повідомлень: 4288

2019-06-18 10:13  
Anonymous написано:
1992

На imdb вказано 1993

Anonymous 







2019-06-18 11:11  
Electroz написано:
1993
виправив

Реліз оновлено - додано ліцензійну доріжку від LeDoyen

Ваш часовий пояс: GMT + 2 Години

Нова тема   Відповісти