VovaZIL’Vova (Вова зі Львова) | Дискографія [2 альбоми] (2006-2007) [APE] | Rap / Hip-Hop

Нові коментарі

Нова тема   Відповісти
Автор Повідомлення
plyrvt 
VIP


З нами з: 04.12.08
Востаннє: 17.04.18
Повідомлень: 398

2009-08-05 21:26  
VovaZIL’Vova (Вова зі Львова) | Дискографія [2 альбоми] (2006-2007) [APE] | Rap / Hip-Hop



Стиль: Rap, Hip-Hop
Країна, місто: Україна, Львів
Сайти: Офіційний сайт
Видавець: M1 records (2006), Moon records (2007)
Виконавці:
Володимир Ігорович Парфенюк
Trim Throw, Insane, Алінка, НП Герик, Мет Квота, Макс Чорний, Кіше, Fame, Gnatkovski, На Відміну Від, DaHok, Тарас П3С, А#3, Айболить, Adrian Garcia, Світлана Лобода, Гайтана, Тіна Кароль
Альбоми:
2006 - Вино. Кобіти. Патіфон


01 - Старий добрий магнітофон - 3:24
02 - Вова зі Львова - 3:09
03 - Спіши Жити - 3:44
04 - Все Буде файно - 3:48
05 - Гарячі танці - 3:10
06 - Компот - 1:56
07 - За що я люблю літо - 3:54
08 - Мені для щастя - 4:21
09 - Хороші дівчата - 4:03
10 - Для тебе - 3:54
11 - Духовне більше - 3:52
12 - Пісня про траву - 3:09
13 - Дитячі мрії - 3:50
14 - Я бачу сон - 4:04
15 - (Мій район) Сихів - 4:23
16 - Я спокійний - 3:42

Тривалість: 00:58:23
EAC Log
Exact Audio Copy V0.99 prebeta 3 from 28. July 2007

Отчёт EAC об извлечении, выполненном 5. марта 2008, 21:20

VovaZiL'vova / Вино.Кобіти.Патіфон

Дисковод: TEAC CD-W540E Adapter: 0 ID: 2

Режим чтения : Достоверность
Использование точного потока : Да
Отключение кэша аудио : Да
Использование указателей C2 : Нет

Коррекция смещения при чтении : 686
Способность читать области Lead-in и Lead-out : Нет
Заполнение пропущенных сэмплов тишиной : Да
Удаление блоков с тишиной в начале и конце : Нет
При вычислениях CRC использовались нулевые сэмплы : Да
Интерфейс : Встроенный Win32-интерфейс для Win NT/2000

Выходной формат : Внутренние WAV-операции
Формат сэмплов : 44.100 Гц; 16 бит; стерео

TOC извлечённого CD

Трек | Старт | Длительность | Начальный сектор | Конечный сектор
---------------------------------------------------------------------
1 | 0:00.00 | 3:23.51 | 0 | 15275
2 | 3:23.51 | 3:09.11 | 15276 | 29461
3 | 6:32.62 | 3:44.01 | 29462 | 46262
4 | 10:16.63 | 3:47.40 | 46263 | 63327
5 | 14:04.28 | 3:10.06 | 63328 | 77583
6 | 17:14.34 | 1:56.28 | 77584 | 86311
7 | 19:10.62 | 3:53.45 | 86312 | 103831
8 | 23:04.32 | 4:20.57 | 103832 | 123388
9 | 27:25.14 | 4:03.18 | 123389 | 141631
10 | 31:28.32 | 3:54.30 | 141632 | 159211
11 | 35:22.62 | 3:51.56 | 159212 | 176592
12 | 39:14.43 | 3:09.16 | 176593 | 190783
13 | 42:23.59 | 3:50.06 | 190784 | 208039
14 | 46:13.65 | 4:04.33 | 208040 | 226372
15 | 50:18.23 | 4:22.66 | 226373 | 246088
16 | 54:41.14 | 3:41.41 | 246089 | 262704
17 | 60:54.55 | 11:01.07 | 274105 | 323686

Характеристики диапазона извлечения и сообщения об ошибках

Выбранный диапазон

Имя файла D:\Torrent\VovaZiL'vova - Вино.Кобіти.Патіфон\VovaZiL'vova - Вино.Кобіти.Патіфон.wav

Пиковый уровень 100.0 %
Качество диапазона 100.0 %
CRC копии A9347A85
Копирование... OK

Ошибок не произошло

Конец отчёта
Audiochecker Log
AUDIOCHECKER v2.0 beta (build 457) - by Dester
~~~~~~~~~~~~~~~~~~~~~~~~~~~~~~~~~~
-=== НЕ РЕДАКТИРУЙТЕ ЭТОТ ФАЙЛ! ===-

Путь: ...\2006 - Вино, кобіти, патіфон

01 -=- 01 - Старий добрий магнітофон.wav -=- CDDA (100%)
02 -=- 02 - Вова зі Львова.wav -=- CDDA (100%)
03 -=- 03 - Спіши Жити.wav -=- CDDA (100%)
04 -=- 04 - Все Буде файно.wav -=- CDDA (100%)
05 -=- 05 - Гарячі танці.wav -=- CDDA (99%)
06 -=- 06 - Компот.wav -=- CDDA (99%)
07 -=- 07 - За що я люблю літо.wav -=- CDDA (100%)
08 -=- 08 - Мені для щастя.wav -=- CDDA (100%)
09 -=- 09 - Хороші дівчата.wav -=- CDDA (100%)
10 -=- 10 - Для тебе.wav -=- CDDA (100%)
11 -=- 11 - Духовне більше.wav -=- CDDA (100%)
12 -=- 12 - Пісня про траву.wav -=- CDDA (100%)
13 -=- 13 - Дитячі мрії.wav -=- CDDA (100%)
14 -=- 14 - Я бачу сон.wav -=- CDDA (100%)
15 -=- 15 - (Мій район) Сихів.wav -=- CDDA (100%)
16 -=- 16 - Я спокійний.wav -=- CDDA (100%)

Сводка 99,88% CDDA

211833012
2007 - ЙоЙ #1


01 - Ввійстя - VovaZiL'vova за участі Met Quota та DJ Andrew - 1:44
02 - Все буде файно (dirty south rmx) - VovaZiL'vova за участі Trim Throw - 3:00
03 - Змінити світ на краще - insane та Алінка за участі B.Rich та VovaZiL'vova - 5:20
04 - Когда она со мной - Chuzz за участі VovaZiL'vova - 3:49
05 - Знай Хто - НП Горила та Met Quota за участі VovaZiL'vova - 5:02
06 - Гарем - VovaZiL'vova за участі Max Chorny та Kishe - 3:22
07 - Вова то gangsta! - VovaZiL'vova - 3:24
08 - I luv n****z! - VovaZiL'vova - 3:41
09 - Моя игра (rmx) - НП Горила за участі VovaZiL'vova - 5:08
10 - Нове життя -VovaZiL'vova за участі B.Rich - 4:28
11 - Мама - Fame за участі VovaZiL'vova - 4:14
12 - Незнайомка (bossa version) - Gnatkovski за участі VovaZiL'vova - 3:42
13 - Я сам собі хейтер - На Відміну Від за участі DaHok та VovaZiL'vova - 4:44
14 - Знай наших - Тарас ПЗС за участі Дрос, Айболить та VovaZiL'vova - 4:17
15 - Нічний Львів - VovaZiL'vova - 1:46
16 - Не така як я хочу - VovaZiL'vova за участі Kishe - 3:44
17 - Незнайомка (r&b version) - Gnatkovski за участі VovaZiL'vova - 3:21
18 - Con solo un beso - Adrian Garcia за участі VovaZiL'vova - 3:48
19 - Вийстя - VovaZiL'vova за участі Met Quota та DJ Andrew - 2:03

Тривалість: 01:10:40
Мова: українська (01-03, 05-08, 10-19), російська (04, 09)
EAC Log
Exact Audio Copy V0.99 prebeta 3 from 28. July 2007

Отчёт EAC об извлечении, выполненном 5. марта 2008, 21:40

VovaZil'vova / ЙоЙ #1

Дисковод: TEAC CD-W540E Adapter: 0 ID: 2

Режим чтения : Достоверность
Использование точного потока : Да
Отключение кэша аудио : Да
Использование указателей C2 : Нет

Коррекция смещения при чтении : 686
Способность читать области Lead-in и Lead-out : Нет
Заполнение пропущенных сэмплов тишиной : Да
Удаление блоков с тишиной в начале и конце : Нет
При вычислениях CRC использовались нулевые сэмплы : Да
Интерфейс : Встроенный Win32-интерфейс для Win NT/2000

Выходной формат : Внутренние WAV-операции
Формат сэмплов : 44.100 Гц; 16 бит; стерео

TOC извлечённого CD

Трек | Старт | Длительность | Начальный сектор | Конечный сектор
---------------------------------------------------------------------
1 | 0:00.00 | 1:44.24 | 0 | 7823
2 | 1:44.24 | 2:59.50 | 7824 | 21298
3 | 4:43.74 | 5:19.70 | 21299 | 45293
4 | 10:03.69 | 3:49.31 | 45294 | 62499
5 | 13:53.25 | 5:02.27 | 62500 | 85176
6 | 18:55.52 | 3:22.36 | 85177 | 100362
7 | 22:18.13 | 3:24.15 | 100363 | 115677
8 | 25:42.28 | 3:41.32 | 115678 | 132284
9 | 29:23.60 | 5:08.24 | 132285 | 155408
10 | 34:32.09 | 4:28.28 | 155409 | 175536
11 | 39:00.37 | 4:14.34 | 175537 | 194620
12 | 43:14.71 | 3:41.61 | 194621 | 211256
13 | 46:56.57 | 4:43.69 | 211257 | 232550
14 | 51:40.51 | 4:16.41 | 232551 | 251791
15 | 55:57.17 | 1:45.48 | 251792 | 259714
16 | 57:42.65 | 3:44.16 | 259715 | 276530
17 | 61:27.06 | 3:21.32 | 276531 | 291637
18 | 64:48.38 | 3:48.36 | 291638 | 308773
19 | 68:36.74 | 2:03.29 | 308774 | 318027

Характеристики диапазона извлечения и сообщения об ошибках

Выбранный диапазон

Имя файла D:\Torrent\VovaZil'vova - ЙоЙ #1\VovaZil'vova - ЙоЙ #1.wav

Пиковый уровень 100.0 %
Качество диапазона 100.0 %
CRC копии E61A38A8
Копирование... OK

Ошибок не произошло

Конец отчёта
Audiochecker Log
AUDIOCHECKER v2.0 beta (build 457) - by Dester
~~~~~~~~~~~~~~~~~~~~~~~~~~~~~~~~~~
-=== НЕ РЕДАКТИРУЙТЕ ЭТОТ ФАЙЛ! ===-

Путь: ...\2007 - ЙоЙ #1

01 -=- 01 - Ввійстя - VovaZiL'vova за участі Met Quota та DJ Andrew.wav -=- CDDA (100%)
02 -=- 02 - Все буде файно (dirty south rmx) - VovaZiL'vova за участі Trim Throw.wav -=- CDDA (100%)
03 -=- 03 - Змінити світ на краще - insane та Алінка за участі B.Rich та VovaZiL'vova.wav -=- CDDA (100%)
04 -=- 04 - Когда она со мной - Chuzz за участі VovaZiL'vova.wav -=- CDDA (100%)
05 -=- 05 - Знай Хто - НП Горила та Met Quota за участі VovaZiL'vova.wav -=- CDDA (100%)
06 -=- 06 - Гарем - VovaZiL'vova за участі Max Chorny та Kishe.wav -=- CDDA (100%)
07 -=- 07 - Вова то gangsta! - VovaZiL'vova.wav -=- CDDA (100%)
08 -=- 08 - I luv nxxxxz! - VovaZiL'vova.wav -=- CDDA (100%)
09 -=- 09 - Моя игра (rmx) - НП Горила за участі VovaZiL'vova.wav -=- CDDA (99%)
10 -=- 10 - Нове життя -VovaZiL'vova за участі B.Rich.wav -=- CDDA (100%)
11 -=- 11 - Мама - Fame за участі VovaZiL'vova.wav -=- CDDA (100%)
12 -=- 12 - Незнайомка (bossa version) - Gnatkovski за участі VovaZiL'vova.wav -=- CDDA (100%)
13 -=- 13 - Я сам собі хейтер - На Відміну Від за участі DaHok та VovaZiL'vova.wav -=- CDDA (100%)
14 -=- 14 - Знай наших - Тарас ПЗС за участі Дрос, Айболить та VovaZiL'vova.wav -=- CDDA (100%)
15 -=- 15 - Нічний Львів - VovaZiL'vova.wav -=- CDDA (54%)
16 -=- 16 - Не така як я хочу - VovaZiL'vova за участі Kishe.wav -=- CDDA (100%)
17 -=- 17 - Незнайомка (r&b version) - Gnatkovski за участі VovaZiL'vova.wav -=- CDDA (100%)
18 -=- 18 - Con solo un beso - Adrian Garcia за участі VovaZiL'vova.wav -=- CDDA (100%)
19 -=- 19 - Вийстя - VovaZiL'vova за участі Met Quota та DJ Andrew.wav -=- CDDA (100%)

Сводка 97,53% CDDA

88064724
Тривалість: 02:09:03
Мова: українська (1-2), російська (2)
Аудіо-кодек: APE
Ріп: image+*.cue (EAC Log, audiochecker log)
EAC: Secure + Accurate stream + disable cache/C2 + Read offset correction
Бітрейт: lossless (~853-973 кбіт/с)
Додаткова інформація:
VovaZIL’Vova («Вова зі Львова», справжнє ім'я: Володимир Ігорович Парфенюк; 30 грудня 1983, Львів) — український виконавець у стилі реп.

Писати пісні Володимир почав з 2002 року, у 2005 році почав читати реп, а у 2006 році став ведучим шоу VovaZIL’Vova на каналі M1. У цьому ж році вийшов його перший альбом «Вино, кобіти, патіфон». У жовтні 2007 року з'являється його другий альбом «ЙОЙ #1». У його створенні брала участь велика кількість західноукраїнських хіп-хоперів


Золотий реліз (завантажене не впливає на рейтинг)
 Трекер:    Зареєстрований   

Завантажити / скачати українську музику



відео для новачків



 Зареєстрований:   2009-08-05 21:26
 Розмір:   848 MB 
 Оцінка музики:   9.7/10 (Голосів: 52)
   
Skiff 
музика
музика


З нами з: 12.11.07
Востаннє: 20.04.18
Повідомлень: 3058

2009-08-05 23:41  
plyrvt написано:
Тривалість: 00:00:00

(інформація під спойлерами про тривалість альбому) так не годиться Happy

ssTAss 
Модератор музики


З нами з: 05.07.08
Востаннє: 21.04.18
Повідомлень: 13309

2009-08-06 09:58  
plyrvt написано:
Мова: українська

та ну... і тут?
04 - Когда она со мной - Chuzz за участі VovaZiL'vova - 3:49
09 - Моя игра (rmx) - НП Горила за участі VovaZiL'vova - 5:08
plyrvt написано:
Країна, місто: Україна, Львів (Сихів)

хіба стрічка називається Країна, місто, район: ?

90210 
Свій


З нами з: 16.06.09
Востаннє: 02.03.18
Повідомлень: 57

2009-08-11 11:56  
станьте на роздачу будь ласка!
fasharama 
Новенький


З нами з: 06.10.09
Востаннє: 29.03.10
Повідомлень: 1

2009-10-06 16:06  
Вова рулить!!!!!!!!!!!!!!!!!
Klisan 
Новенький


З нами з: 22.11.09
Востаннє: 24.02.18
Повідомлень: 14

2010-06-05 10:34  
plyrvt, чекаю альбом "Останній непопсовий".
plyrvt 
VIP


З нами з: 04.12.08
Востаннє: 17.04.18
Повідомлень: 398

2010-06-05 12:02  
Klisan а воно на диску виходило? Більше схоже на mp3-бутлег, що поширюється лише по мережі.
Klisan 
Новенький


З нами з: 22.11.09
Востаннє: 24.02.18
Повідомлень: 14

2010-06-05 19:36  
Мабуть, ти краще знаєш. Про цей альбом взнав на вікіпедії:
http://uk.wikipedia.org/wiki/ова_зі_Львова

Зореліт 
VIP


З нами з: 18.09.10
Востаннє: 19.04.18
Повідомлень: 315

2011-03-22 19:23  
Я не напрягаюсь, я не нервуюся...)
Вова дійсно зроби великий внесок в розвиток репу на теренах Україні!

stremdima 
VIP


З нами з: 07.02.09
Востаннє: 27.03.18
Повідомлень: 520

2011-05-20 19:20  
Народ, а хтось може порозрізати всі пісні окремо, а то я не вмію, а двома файлами слухати 35 пісень незручно.
plyrvt 
VIP


З нами з: 04.12.08
Востаннє: 17.04.18
Повідомлень: 398

2011-05-20 19:53  
Bulka27 
Відео Гуртом - фільмокрай
Відео Гуртом - фільмокрай


З нами з: 27.11.09
Востаннє: 13.04.18
Повідомлень: 784

2011-05-20 23:35  
Цей Вова вчився в моїй школі Happy)) Хто б міг подумати що він так розкрутиться.
stremdima 
VIP


З нами з: 07.02.09
Востаннє: 27.03.18
Повідомлень: 520

2011-05-21 09:44  
plyrvt А не можна було б їх порозрізати і кинути в інший розділ?
ssTAss 
Модератор музики


З нами з: 05.07.08
Востаннє: 21.04.18
Повідомлень: 13309

2011-05-21 13:45  
stremdima, користуйтесь пошуком
ці релізи в мр3
VovaZiL'vova - Вино, кобіти, патіфон (2006) [MP3] | Rap
VovaZil'Vova - ЙОЙ #1 (2007) [MP3] | Hip-Hop/Rap

ostryzhniukn 
VIP


З нами з: 30.09.09
Востаннє: 15.06.13
Повідомлень: 508

2011-05-22 04:14  
вже хочу почути останній непопсовий, та ВзВ щось не спішить (
П.С.: кліп Мажори - просто бомба))) таке більше ніхто не знімає!(

stremdima 
VIP


З нами з: 07.02.09
Востаннє: 27.03.18
Повідомлень: 520

2011-06-04 18:01  
ssTAss написано:
stremdima, користуйтесь пошуком

Ой, даруйте =))) Дякую)))

ostryzhniukn написано:
вже хочу почути останній непопсовий,


В інтернеті він є, і майже повністю. Тільки розкиданий окремими піснями.

А на цьому сайті можна завантажити всі пісні з цього альбому крім 2, 10 і 11
[посилання на сторонній сайт, видалено. AlanAlan]
Тре тільки зарегатись (то швидко))))

Ось список пісень:

VovaZIL’Vova (Вова зі Львова) - Останній непопсовий

1) Колись сідав і писав ________________________________________ 5:12

2) Моя територія _______________________________________________ 2:55

3) Надто багато серіалів _______________________________________ 3:21

4) Стільки думок _______________________________________________ 4:00

5) Я не роблю реп ______________________________________________ 3:42

6) Я люблю реп (за участі Крижик і Мастер) _____________________ 4:56

7) Дух Заходу (за участі DaHok і 4FRONT) _______________________ 3:40

8) Воно прийде само (частина ІІІ за участі Snake G і Муза) _____ 4:49

9) Ми маленькі мажори (за участі НП Горила) ____________________ 3:40

10) Коли я п‘ю шампанське ______________________________________ 3:20

11) …конче потрібна ____________________________________________ 2:27

12) Кохана _____________________________________________________ 3:30

13) Я не напрягаюсь ____________________________________________ 3:59

14) Дай мені біт (акапела) _____________________________________ 2:36

ostryzhniukn 
VIP


З нами з: 30.09.09
Востаннє: 15.06.13
Повідомлень: 508

2011-06-04 20:53  
stremdima
я про лосслесс

stremdima 
VIP


З нами з: 07.02.09
Востаннє: 27.03.18
Повідомлень: 520

2011-06-06 08:26  
ostryzhniukn а, ну тоді незнаю))))
lasmen 
VIP


З нами з: 09.12.11
Востаннє: 11.08.13
Повідомлень: 621

2012-03-13 21:52  
Цитата:
Сьогодні в клюбі будуть танці
ха-ха. Чудово
DanBoV 
Новенький


З нами з: 25.01.11
Востаннє: 09.04.13
Повідомлень: 1

2013-04-09 14:51  
Привіт, люди добрі станьте ще хтось на роздачу))))
staf777 
Попереджень: 1
Попереджень: 1 


З нами з: 16.11.16
Востаннє: 20.04.18
Повідомлень: 963

2016-11-25 19:57  
Жесть вчора якраз у кента в гостях чув - я не любитель вітчизняних виконавців я маю на увазі не в цілому, а саме жанру хіп-хапа але Володимир - не фонтан але бризки є звичайно далеко до Емінема - Тупака - Ассая - Басти і інших але сушать можна - мені сподобався - автору респект
OlexsandrUA 
Новенький


З нами з: 02.02.18
Востаннє: 06.02.18
Повідомлень: 1

2018-02-02 23:27  
Люблю цього виконавця Happy
Ваш часовий пояс: GMT + 2 Години

Нова тема   Відповісти