Kingsman: Таємна служба / Kingsman: The Secret Service (2014) [640x268]

Нові коментарі

Нова тема   Відповісти
Останній раз роздавалося romanogor (2019-05-25)
Автор Повідомлення
DmitryA 
Новенький


З нами з: 15.08.12
Востаннє: 21.05.19
Повідомлень: 23

2015-08-13 20:13  
Kingsman: Таємна служба / Kingsman: The Secret Service (2014) [640x268]

Kingsman: Таємна служба / Kingsman: The Secret Service (2014) [640x268]


Жанр: екшн, пригодницький, комедія, кримінальний
Країна: Великобританія



Кінокомпанія: Twentieth Century Fox Film Corporation, Marv Films, TSG Entertainment
Режисер: Метью Вон
Актори: Колін Ферт, Семюель Л. Джексон, Тайрон Еґертон, Софія Бутелла, Майкл Кейн, Марк Стронґ, Марк Геміл, Джек Девенпорт

Сюжет:
Фільм розповідає про над таємну шпигунську організацію, куди для проходження ультра-спецпідготовки приймають невихованого, але перспективного «вуличного хлопця». Тим часом перед людством постає глобальна загроза, породжена збоченим технічним генієм...


Тривалість: 02:08:44
Якість:
Відео:
кодек: MPEG-4 SP
розмір кадру: 640 x 268
бітрейт: 1100 кб/с

Аудіо:
мова: українська
переклад: професійний дубльований
кодек: 2.0
бітрейт: 128 кб/с
Скріншоти







Звіт Info
General
Complete name : Kingsman.The.Secret.Service.2014..360p.[Hurtom].m4v
Format : MPEG-4
Codec ID : M4V
File size : 1.10 GiB
Duration : 2h 8mn
Overall bit rate mode : Variable
Overall bit rate : 1 226 Kbps
Encoded date : UTC 2015-07-10 07:32:18
Tagged date : UTC 2015-07-10 07:32:18

Video
ID : 1
Format : MPEG-4 Visual
Format profile : [email protected]
Format settings, BVOP : No
Format settings, QPel : No
Format settings, GMC : No warppoints
Format settings, Matrix : Default (H.263)
Codec ID : 20
Duration : 2h 8mn
Bit rate mode : Variable
Bit rate : 1 095 Kbps
Maximum bit rate : 7 501 Kbps
Width : 640 pixels
Height : 268 pixels
Display aspect ratio : 2.40:1
Frame rate mode : Constant
Frame rate : 23.976 fps
Color space : YUV
Chroma subsampling : 4:2:0
Bit depth : 8 bits
Scan type : Progressive
Compression mode : Lossy
Bits/(Pixel*Frame) : 0.266
Stream size : 1 008 MiB (89%)
Writing library : 1.2.1 (UTC 2008-12-04)
Encoded date : UTC 2015-07-10 07:32:18
Tagged date : UTC 2015-07-10 07:32:24

Audio
ID : 2
Format :
Format/Info : Advanced Audio Codec
Format profile : LC
Codec ID : 40
Duration : 2h 8mn
Bit rate mode : Variable
Bit rate : 128 Kbps
Maximum bit rate : 136 Kbps
Channel(s) : 2 channels
Channel positions : Front: L R
Sampling rate : 48.0 KHz
Compression mode : Lossy
Stream size : 118 MiB (10%)
Encoded date : UTC 2015-07-10 07:32:21
Tagged date : UTC 2015-07-10 07:32:24
Джерело:
Особиста оцінка: 10 - без зайвих вагань рекомендую всім!


 Трекер:    Зареєстрований   

Завантажити / скачати торрент



відео для новачків



 Зареєстрований:   2015-08-13 20:13
 Розмір:   1.1 GB 
 Оцінка:   8.5/10 (Голосів: 11)
   
bot 
робот


З нами з: 30.09.07
Востаннє: 26.05.05
Повідомлень: 21384

2015-08-13 20:13  
Тему перенесено з Фільми до форуму Відео для мобільних (iOS, Android, Windows Phone)


DmitryA

Ваш часовий пояс: GMT + 2 Години

Нова тема   Відповісти