Геркулес / Hercules (2014) [640x320]

Нові коментарі

Нова тема   Відповісти
Останній раз роздавалося [email protected] (2021-01-24)
Автор Повідомлення
DmitryA 
Новенький


З нами з: 15.08.12
Востаннє: 05.01.21
Повідомлень: 23

2015-08-07 19:51  
Геркулес / Hercules (2014) 360p

Геркулес / Hercules (2014) [640x320]


Жанр: екшн, пригодницький
Країна: США



Кінокомпанія: Paramount Pictures, Metro-Goldwyn-Mayer (MGM), Flynn Picture
Режисер: Бретт Ретнер
Актори: Двейн Джонсон, Аксель Генні, Ірина Шейк, Іен Макшейн, Джон Герт, Руфус Сьюелл, Інґрід Больсе Бердаль, Ріс Річі, Джозеф Файнс, Тобіас Зантельмен, Пітер Муллан

Сюжет:
Більше тисячі років тому змучена душа поневірялася по Землі, напівбог, напівлюдина - Геркулес - могутній син царя богів Зевса, зробивши всі 12 подвигів, втратив сім'ю і тепер знаходить розраду тільки в кривавих битвах. За ці роки він збирає навколо себе шістьох таких же загублених воїнів, єдиним сенсом життя для яких стали битви і присутність смертельної небезпеки. Ці чоловіки і жінка ніколи не задають питання, де, чому або з ким вони йдуть боротися; тільки, скільки їм заплатять. Знаючи це, фракійський цар Котіс наймає цих воїнів, щоб вони навчили його солдатів і зробили з них найсильнішу і велику армію всіх часів.


Тривалість: 01:38:04
Відео:
кодек: MPEG-4 SP
розмір кадру: 640 x 320
бітрейт: 1100 кб/с

Аудіо:
мова: українська
переклад: професійний дубльований
кодек: 2.0
бітрейт: 128 кб/с
Скріншоти





Звіт Info
General
Complete name : Hercules.2014..360p.[Hurtom].m4v
Format : MPEG-4
Codec ID : M4V
File size : 862 MiB
Duration : 1h 38mn
Overall bit rate mode : Variable
Overall bit rate : 1 229 Kbps
Encoded date : UTC 2015-01-13 00:04:46
Tagged date : UTC 2015-01-13 00:04:46

Video
ID : 1
Format : MPEG-4 Visual
Format profile : [email protected]
Format settings, BVOP : No
Format settings, QPel : No
Format settings, GMC : No warppoints
Format settings, Matrix : Default (H.263)
Codec ID : 20
Duration : 1h 38mn
Bit rate mode : Variable
Bit rate : 1 099 Kbps
Maximum bit rate : 4 716 Kbps
Width : 640 pixels
Height : 320 pixels
Display aspect ratio : 2.000
Frame rate mode : Constant
Frame rate : 23.976 fps
Color space : YUV
Chroma subsampling : 4:2:0
Bit depth : 8 bits
Scan type : Progressive
Compression mode : Lossy
Bits/(Pixel*Frame) : 0.224
Stream size : 771 MiB (89%)
Writing library : 1.2.1 (UTC 2008-12-04)
Encoded date : UTC 2015-01-13 00:04:46
Tagged date : UTC 2015-01-13 00:04:51

Audio
ID : 2
Format :
Format/Info : Advanced Audio Codec
Format profile : LC
Codec ID : 40
Duration : 1h 38mn
Bit rate mode : Variable
Bit rate : 128 Kbps
Maximum bit rate : 135 Kbps
Channel(s) : 2 channels
Channel positions : Front: L R
Sampling rate : 48.0 KHz
Compression mode : Lossy
Stream size : 89.8 MiB (10%)
Encoded date : UTC 2015-01-13 00:04:49
Tagged date : UTC 2015-01-13 00:04:51
Джерело:
Особиста оцінка: 10 - без зайвих вагань рекомендую всім!


 Трекер:    Зареєстрований   

Завантажити / скачати торрент



відео для новачків



 Зареєстрований:   2015-08-07 19:51
 Розмір:   862 MB 
 Оцінка:   9.2/10 (Голосів: 13)
   
bot 
робот


З нами з: 30.09.07
Востаннє: 26.05.05
Повідомлень: 26983

2015-08-07 19:51  
Тему перенесено з Фільми до форуму Відео для мобільних (iOS, Android, Windows Phone)


DmitryA

Ваш часовий пояс: GMT + 2 Години

Нова тема   Відповісти