Праведник / The Equalizer (2014) [640 x 270]

Нові коментарі

Нова тема   Відповісти
Останній раз роздавалося feuer (2020-12-30)
Автор Повідомлення
DmitryA 
Новенький


З нами з: 15.08.12
Востаннє: 05.01.21
Повідомлень: 23

2015-08-06 15:59  
Праведник / The Equalizer (2014) [640 x 270]

Праведник / The Equalizer (2014) [640 x 270]


Жанр: трилер, бойовик, кримінальний
Країна: США



Кінокомпанія: Columbia Pictures, Escape Artists, Lionsgate, Lonetree Entertainment, LStar Capital, Mace Neufeld Productions, Village Roadshow Pictures
Режисер: Антуан Фукуа
Актори: Дензел Вашинґтон, Мартон Чокаш, Хлоя Ґрейс Морец, Девід Харбор, Хейлі Беннетт, Білл Пуллман, Мелісса Лео, Девід Мюньє, Джонні Скуртіс, Алекс Видів

Сюжет:
Роберт Макколл - колишній спецназівець. Після звільнення зі служби він збирається почати нормальне мирне життя, давши собі обіцянку, більше ніколи не брати в руки зброї. Але в один прекрасний момент він зустрічає молоду дівчину, яка заробляє на життя проституцією, яку на його очах б'ють бандити і відвозять у невідомому напрямку. Тоді він вирішує відшукати її, після чого вступає в нерівну сутичку з російською мафією і продажними агентами ЦРУ. Заради справедливості він готовий порушити власну обіцянку і застосувати зброю проти людей, які просто не заслуговують жити в цьому світі ...


Тривалість: 02:12:03
Якість:
Відео:
кодек: MPEG-4 SP
розмір кадру: 640 x 268
бітрейт: 1100 кб/с

Аудіо:
мова: українська
переклад: професійний дубльований
кодек: 2.0
бітрейт: 128 кб/с
Скріншоти





Звіт Info
General
Complete name : The.Equalizer.2014..360p.[Hurtom].m4v
Format : MPEG-4
Codec ID : M4V
File size : 1.11 GiB
Duration : 2h 12mn
Overall bit rate mode : Variable
Overall bit rate : 1 200 Kbps
Encoded date : UTC 2015-01-15 11:34:47
Tagged date : UTC 2015-01-15 11:34:47

Video
ID : 1
Format : MPEG-4 Visual
Format profile : [email protected]
Format settings, BVOP : No
Format settings, QPel : No
Format settings, GMC : No warppoints
Format settings, Matrix : Default (H.263)
Codec ID : 20
Duration : 2h 12mn
Bit rate mode : Variable
Bit rate : 1 070 Kbps
Maximum bit rate : 11.6 Mbps
Width : 640 pixels
Height : 268 pixels
Display aspect ratio : 2.40:1
Frame rate mode : Constant
Frame rate : 23.976 fps
Color space : YUV
Chroma subsampling : 4:2:0
Bit depth : 8 bits
Scan type : Progressive
Compression mode : Lossy
Bits/(Pixel*Frame) : 0.260
Stream size : 1 010 MiB (89%)
Writing library : 1.2.1 (UTC 2008-12-04)
Encoded date : UTC 2015-01-15 11:34:47
Tagged date : UTC 2015-01-15 11:34:54

Audio
ID : 2
Format :
Format/Info : Advanced Audio Codec
Format profile : LC
Codec ID : 40
Duration : 2h 12mn
Bit rate mode : Variable
Bit rate : 128 Kbps
Maximum bit rate : 135 Kbps
Channel(s) : 2 channels
Channel positions : Front: L R
Sampling rate : 48.0 KHz
Compression mode : Lossy
Stream size : 121 MiB (11%)
Encoded date : UTC 2015-01-15 11:34:51
Tagged date : UTC 2015-01-15 11:34:54
Джерело:
Особиста оцінка: 10 - без зайвих вагань рекомендую всім!


 Трекер:    Зареєстрований   

Завантажити / скачати торрент



відео для новачків



 Зареєстрований:   2015-08-06 15:59
 Розмір:   1.11 GB 
 Оцінка:   9.8/10 (Голосів: 13)
   
Інші релізи
   Праведник / The Equalizer (2014) Remux 1080p Ukr/Eng | Sub Eng kryk-v.ya.  0 / 0   24.17 GB   2018-11-16 19:32 
   Праведник / The Equalizer (2014) 720p-mini Drool  0 / 0   2.74 GB   2015-07-29 09:30 
   Праведник / The Equalizer (2014) Blu-ray CEE Multi | Sub Multi smak2001  0 / 0   40.28 GB   2014-12-19 11:25 
   Праведник / The Equalizer (2014) patriot2305  8 / 0   1.46 GB   2014-12-18 19:37 
   Праведник / The Equalizer (2014) 1080p Ukr/Eng | Sub Eng 11FrYkT  6 / 0   10.1 GB   2014-12-18 18:10 
   Праведник / The Equalizer (2014) AVC patriot2305  4 / 0   2.7 GB   2014-12-18 17:45 
   Праведник / The Equalizer (2014) 720p Ukr/Eng | Sub Eng 11FrYkT  4 / 0   5.12 GB   2014-12-18 17:29 
   Праведник / The Equalizer (2014) Gelios  3 / 0   2.18 GB   2014-12-18 16:13 
bot 
робот


З нами з: 30.09.07
Востаннє: 26.05.05
Повідомлень: 26976

2015-08-06 15:59  
Тему перенесено з Фільми до форуму Відео для мобільних (iOS, Android, Windows Phone)


DmitryA

Ваш часовий пояс: GMT + 2 Години

Нова тема   Відповісти