Життя не може бути нудним / Zindagi Na Milegi Dobara (2011) [640 x 270]

Нові коментарі

Нова тема   Відповісти
Останній раз роздавалося DmitryA (2020-09-30)
Автор Повідомлення
DmitryA 
Новенький


З нами з: 15.08.12
Востаннє: 05.01.21
Повідомлень: 23

2015-08-05 20:07  
Життя не може бути нудним / Zindagi Na Milegi Dobara (2011) [640 x 270]

Життя не може бути нудним / Zindagi Na Milegi Dobara (2011) [640 x 270]


Жанр: драма, мелодрама, комедія, пригодницький, сімейний
Країна: Індія



Кінокомпанія: Eros International, Excel Entertainment, Kanzaman
Режисер: Зоя Ахтар
Актори: Катріна Кейф, Рітік Рошан, Насіруддін Шах, Фархан Ахтар, Калкі Коечлін, Абхай Деол, Діпті Навал, Аріадна Каброль, Менді Сідху, Раагхав Чанана

Сюжет:
Троє молодих людей їдуть на канікули, які змінять їхнє життя. Кабір зустрічає дівчину Наташу і шість місяців потому вони заручуються. Він хоче влаштувати щось на зразок розширеного варіанту парубочої вечірки - тритижневу поїздку з Імраном і Арджуном - двома його найкращими друзями ще зі школи.


Тривалість: 02:33:21
Якість:
Відео:
кодек: MPEG-4 SP
розмір кадру: 640 x 270
бітрейт: 1100 кб/с

Аудіо:
мова: українська
переклад: двоголосий закадровий
кодек: 2.0
бітрейт: 128 кб/с
Скріншоти








Звіт Info
General
Complete name : Zindagi.Na.Milegi.Dobara.2011.DBRip.360p.[Hurtom].m4v
Format : MPEG-4
Codec ID : M4V
File size : 1.31 GiB
Duration : 2h 33mn
Overall bit rate mode : Variable
Overall bit rate : 1 226 Kbps
Encoded date : UTC 2015-08-04 17:44:05
Tagged date : UTC 2015-08-04 17:44:05

Video
ID : 1
Format : MPEG-4 Visual
Format profile : [email protected]
Format settings, BVOP : No
Format settings, QPel : No
Format settings, GMC : No warppoints
Format settings, Matrix : Default (H.263)
Codec ID : 20
Duration : 2h 33mn
Bit rate mode : Variable
Bit rate : 1 096 Kbps
Maximum bit rate : 6 682 Kbps
Width : 640 pixels
Height : 270 pixels
Display aspect ratio : 2.40:1
Frame rate mode : Constant
Frame rate : 24.000 fps
Color space : YUV
Chroma subsampling : 4:2:0
Bit depth : 8 bits
Scan type : Progressive
Compression mode : Lossy
Bits/(Pixel*Frame) : 0.264
Stream size : 1.17 GiB (89%)
Writing library : 1.2.1 (UTC 2008-12-04)
Encoded date : UTC 2015-08-04 17:44:05
Tagged date : UTC 2015-08-04 17:44:13

Audio
ID : 2
Format :
Format/Info : Advanced Audio Codec
Format profile : LC
Codec ID : 40
Duration : 2h 33mn
Bit rate mode : Variable
Bit rate : 128 Kbps
Maximum bit rate : 138 Kbps
Channel(s) : 2 channels
Channel positions : Front: L R
Sampling rate : 48.0 KHz
Compression mode : Lossy
Stream size : 140 MiB (10%)
Encoded date : UTC 2015-08-04 17:44:09
Tagged date : UTC 2015-08-04 17:44:13
Джерело: https://toloka.to/t65399
Подяка п.РОМЕО за запис звуку, п.omm за синхронізацію та п.Gelios за українізований постер
Особиста оцінка: 0 - не дивився


 Трекер:    Зареєстрований   

Завантажити / скачати торрент



відео для новачків



 Зареєстрований:   2015-08-05 20:07
 Розмір:   1.31 GB 
 Оцінка:   8.5/10 (Голосів: 2)
   
Інші релізи
bot 
робот


З нами з: 30.09.07
Востаннє: 26.05.05
Повідомлень: 26945

2015-08-05 20:08  
Тему перенесено з Фільми до форуму Відео для мобільних (iOS, Android, Windows Phone)


DmitryA

omm 
Відео Гуртом - фільмокрай
Відео Гуртом - фільмокрай


З нами з: 12.06.12
Востаннє: 21.01.21
Повідомлень: 2442

2015-08-06 07:53  
Якщо використовуєте звук, записаний і зведений кимсь з гуртомівців, і постер, українізований теж кимсь з гуртомівців, не забувайте це вказувати
Код:
[color=green][b]Подяка п.[url=http://toloka.to/u2697]РОМЕО[/url] за запис звуку, п.[url=http://toloka.to/u240915]omm[/url] за синхронізацію та п.[url=http://toloka.to/u158224]Gelios[/url] за українізований постер[/b][/color]

Ваш часовий пояс: GMT + 2 Години

Нова тема   Відповісти