Чаклунка / Maleficent (2014) [640 x 270]

Нові коментарі

Нова тема   Відповісти
Автор Повідомлення
DmitryA 
Новенький


З нами з: 15.08.12
Востаннє: 28.09.20
Повідомлень: 23

2015-08-04 18:34  
Чаклунка / Maleficent (2014) [640 x 270]

Чаклунка / Maleficent (2014) [640 x 270]


Жанр: фентезі, драма, пригодницький, сімейний, екшн
Країна: США



Кінокомпанія: Moving Picture Company, Roth Films
Режисер: Роберт Стромберг
Актори: Анджеліна Джолі, Елль Феннінг, Джуно Темпл, Шарлто Коплі, Сем Райлі, Ханна Нью, Імелда Стонтон, Елла Пернелл, Брентон Туейтес, Джо Осмонд, Джеймі Сівес, Леслі Менвілл, Кеннет Кренем, Стівен Крі

Сюжет:
Юна чаклунка Малефісента вела відокремлене життя в зачарованому лісі, оточена казковими істотами, але одного разу все змінилося... В її світ вторглися люди, які принесли з собою руйнування і хаос, і Малефісенті довелося встати на захист своїх підданих, закликавши на допомогу могутні темні сили. У запалі боротьби Малефісента наклала страшне закляття на новонароджену дочку короля, прекрасну Аврору. Але, спостерігаючи за тим, як росте маленька принцеса, Малефісента починає сумніватися у правильності свого вчинку - адже, можливо, саме Аврора може вдихнути нове життя в чарівне лісове царство...


Тривалість: 01:37:28
Якість:
Відео:
кодек:
розмір кадру: 640 x 268
бітрейт: 1100 кб/с

Аудіо:
мова: українська
переклад: професійний дубльований
кодек: 2.0
бітрейт: 128 кб/с
Скріншоти








Звіт Info
General
Complete name : Maleficent.2014.DBRip.720p.[Hurtom].m4v
Format : MPEG-4
Codec ID : M4V
File size : 859 MiB
Duration : 1h 37mn
Overall bit rate mode : Variable
Overall bit rate : 1 233 Kbps
Encoded date : UTC 2015-08-03 15:45:55
Tagged date : UTC 2015-08-03 15:45:55

Video
ID : 1
Format : MPEG-4 Visual
Format profile : [email protected]
Format settings, BVOP : No
Format settings, QPel : No
Format settings, GMC : No warppoints
Format settings, Matrix : Default (H.263)
Codec ID : 20
Duration : 1h 37mn
Bit rate mode : Variable
Bit rate : 1 102 Kbps
Maximum bit rate : 5 984 Kbps
Width : 640 pixels
Height : 268 pixels
Display aspect ratio : 2.40:1
Frame rate mode : Constant
Frame rate : 23.976 fps
Color space : YUV
Chroma subsampling : 4:2:0
Bit depth : 8 bits
Scan type : Progressive
Compression mode : Lossy
Bits/(Pixel*Frame) : 0.268
Stream size : 768 MiB (89%)
Writing library : 1.2.1 (UTC 2008-12-04)
Encoded date : UTC 2015-08-03 15:45:55
Tagged date : UTC 2015-08-03 15:46:00

Audio
ID : 2
Format :
Format/Info : Advanced Audio Codec
Format profile : LC
Codec ID : 40
Duration : 1h 37mn
Bit rate mode : Variable
Bit rate : 128 Kbps
Maximum bit rate : 135 Kbps
Channel(s) : 2 channels
Channel positions : Front: L R
Sampling rate : 48.0 KHz
Compression mode : Lossy
Stream size : 89.2 MiB (10%)
Encoded date : UTC 2015-08-03 15:45:58
Tagged date : UTC 2015-08-03 15:46:00
Джерело:
Особиста оцінка: 10 - без зайвих вагань рекомендую всім!


 Трекер:    Зареєстрований   

Завантажити / скачати торрент



відео для новачків



 Зареєстрований:   2015-08-04 18:34
 Розмір:   859 MB 
 Оцінка:   8.6/10 (Голосів: 13)
   
Інші релізи
   Чаклунка / Maleficent (2014) [Open Matte] 1080p Ukr/Eng | Sub Eng Alukret  3 / 0   4.9 GB   2020-10-22 10:29 
   Чаклунка / Maleficent (2014) AVC Ukr/Eng | Sub Eng patriot2305  29 / 0   1.77 GB   2019-12-27 10:24 
   Чаклунка / Maleficent (2014) Remux 1080p Ukr/Eng | Sub Eng antik_2008  5 / 0   23.43 GB   2019-09-27 18:06 
   Чаклунка / Maleficent (2014) UHD Remux 4K 2160p HDR H.265 Ukr/Eng | Sub Eng antik_2008  8 / 0   49.36 GB   2019-09-26 10:03 
   Чаклунка / Maleficent (2014) 1080p [60fps] Ukr/Eng | Sub Eng Estranded  2 / 0   8.53 GB   2014-10-03 11:09 
   Чаклунка / Maleficent (2014) 1080p 3D [Half OverUnder] Ukr/Eng 3d_reliz  6 / 0   8.71 GB   2014-09-28 19:07 
   Чаклунка / Maleficent (2014) 720p-mini (60fps) Drool  2 / 0   4.62 GB   2014-09-15 22:55 
   Чаклунка / Maleficent (2014) 1080p Ukr/Eng | Sub Eng 11FrYkT  10 / 0   10.91 GB   2014-09-14 09:00 
   Чаклунка / Maleficent (2014) 720p Ukr/Eng | Sub Eng 11FrYkT  19 / 0   4.23 GB   2014-09-14 07:21 
   Чаклунка / Maleficent (2014) Gelios  18 / 0   1.45 GB   2014-09-13 13:50 
bonbon13 
Новенький


З нами з: 14.12.17
Востаннє: 12.04.20
Повідомлень: 2

2019-10-21 19:38  
роздайте!!!!!!!
Ваш часовий пояс: GMT + 2 Години

Нова тема   Відповісти