Махни крилом! / Gus - Petit oiseau, grand voyage (2014) 720p Ukr/Fre

Нові коментарі

Нова тема   Відповісти
Автор Повідомлення
AngryBirdsUA 
Свій


З нами з: 24.02.10
Востаннє: 17.08.17
Повідомлень: 3097

2015-08-03 22:52  
Махни крилом! / Gus - Petit oiseau, grand voyage (2014) 720p Ukr/Fre

Махни крилом! / Gus - Petit oiseau, grand voyage (2014) 720p Ukr/Fre


Жанр: анімація, пригодницький, сімейний
Країна: Франція



Кінокомпанія: TeamTO, Haut et Court, Compagnie Cinématographique, La
Режисер: Крістіан Де Віта
Ролі озвучують: Сет Грін, Іветт Ніколь Браун, Джим Реш, Дакота Фаннінг, Артур Дюпон, Сара Форестьє, Бруно Саломон, П'єр Рішар, Ізабель Рено

Сюжет:
Щороку всі птахи відлітають на південь. Повинна відлетіти і зграя нашого юного героя Чижика, але в останній момент перед перельотом на ватажка зграї Даріуса нападає злий кіт. Тільки Даріус знає дорогу на південь, і він встигає передати секрет Чижику, який тепер має стати ватажком зграї. У Чижика немає досвіду таких далеких перельотів, і тим більше, досвіду лідерства в зграї, але йому не залишається нічого, крім як швидко вчитися.


Тривалість: 01:30:11
Якість: 720p (Hurtom)
Відео:
кодек:
розмір кадру: 1280 х 692
бітрейт: 6000 кб/с

Аудіо # 1:
мова: українська
переклад: багатоголосий закадровий
кодек: 2.0
бітрейт: 192 кб/с

Аудіо # 2:
мова: французька
переклад: оригінал
кодек: 5.1
бітрейт: 448 кб/с
Info
General
Unique ID : 222191228846890922287090561658533877253 (0xA728795EB9A92FA1AC8167C51E8A9605)
Complete name : E:\Gus - Petit oiseau, grand voyage (2014) 720p [Ukr.Fre] [Hurtom].
Format :
Format version : Version 4 / Version 2
File size : 4.18 GiB
Duration : 1h 30mn
Overall bit rate : 6 643 Kbps
Encoded date : UTC 2015-08-03 17:53:12
Writing application : mkvmerge v8.2.0 ('World of Adventure') 64bit
Writing library : libebml v1.3.1 + libmatroska v1.4.2
Attachements : poster.jpg
DURATION : 01:30:10.688000000
NUMBER_OF_FRAMES : 169084
NUMBER_OF_BYTES : 129856512
_STATISTICS_WRITING_APP : mkvmerge v8.2.0 ('World of Adventure') 64bit
_STATISTICS_WRITING_DATE_UT : 2015-08-03 17:53:12
_STATISTICS_TAGS : BPS DURATION NUMBER_OF_FRAMES NUMBER_OF_BYTES

Video
ID : 1
Format : AVC
Format/Info : Advanced Video Codec
Format profile : [email protected]
Format settings, CABAC : Yes
Format settings, ReFrames : 9 frames
Codec ID : V_MPEG4/ISO/AVC
Bit rate : 6 000 Kbps
Width : 1 280 pixels
Height : 692 pixels
Display aspect ratio : 1.85:1
Frame rate mode : Variable
Color space : YUV
Chroma subsampling : 4:2:0
Bit depth : 8 bits
Scan type : Progressive
Writing library : core 142 r2479 dd79a61
Encoding settings : cabac=1 / ref=9 / deblock=1:1:1 / analyse=0x1:0x131 / me=umh / subme=9 / psy=1 / psy_rd=0.40:0.00 / mixed_ref=1 / me_range=16 / chroma_me=1 / trellis=2 / 8x8dct=0 / cqm=0 / deadzone=21,11 / fast_pskip=1 / chroma_qp_offset=-2 / threads=12 / lookahead_threads=1 / sliced_threads=0 / nr=0 / decimate=1 / interlaced=0 / bluray_compat=0 / constrained_intra=0 / bframes=5 / b_pyramid=2 / b_adapt=2 / b_bias=0 / direct=3 / weightb=1 / open_gop=0 / weightp=2 / keyint=240 / keyint_min=24 / scenecut=40 / intra_refresh=0 / rc_lookahead=60 / rc=2pass / mbtree=1 / bitrate=6000 / ratetol=1.0 / qcomp=0.60 / qpmin=0 / qpmax=69 / qpstep=4 / cplxblur=20.0 / qblur=0.5 / vbv_maxrate=50000 / vbv_bufsize=62500 / nal_hrd=none / filler=0 / ip_ratio=1.40 / aq=1:0.60
Default : Yes
Forced : No
Color range : Limited
Color primaries : BT.709
Transfer characteristics : BT.709
Matrix coefficients : BT.709
DURATION : 01:30:10.756000000
NUMBER_OF_FRAMES : 129728
NUMBER_OF_BYTES : 4058966305
_STATISTICS_WRITING_APP : mkvmerge v8.2.0 ('World of Adventure') 64bit
_STATISTICS_WRITING_DATE_UT : 2015-08-03 17:53:12
_STATISTICS_TAGS : BPS DURATION NUMBER_OF_FRAMES NUMBER_OF_BYTES

Audio #1
ID : 2
Format : AC-3
Format/Info : Audio Coding 3
Mode extension : CM (complete main)
Format settings, Endianness : Big
Codec ID : A_AC3
Duration : 1h 30mn
Bit rate mode : Constant
Bit rate : 192 Kbps
Channel(s) : 2 channels
Channel positions : Front: L R
Sampling rate : 48.0 KHz
Compression mode : Lossy
Delay relative to video : -100ms
Stream size : 124 MiB (3%)
Language : Ukrainian
Default : Yes
Forced : No
DURATION : 01:30:10.720000000
NUMBER_OF_FRAMES : 169085
NUMBER_OF_BYTES : 303000320
_STATISTICS_WRITING_APP : mkvmerge v8.2.0 ('World of Adventure') 64bit
_STATISTICS_WRITING_DATE_UT : 2015-08-03 17:53:12
_STATISTICS_TAGS : BPS DURATION NUMBER_OF_FRAMES NUMBER_OF_BYTES

Audio #2
ID : 3
Format : AC-3
Format/Info : Audio Coding 3
Mode extension : CM (complete main)
Format settings, Endianness : Big
Codec ID : A_AC3
Duration : 1h 30mn
Bit rate mode : Constant
Bit rate : 448 Kbps
Channel(s) : 6 channels
Channel positions : Front: L C R, Side: L R, LFE
Sampling rate : 48.0 KHz
Compression mode : Lossy
Delay relative to video : -5ms
Stream size : 289 MiB (7%)
Language : French
Default : No
Forced : No


Подяка за фінансову допомогу панам: piligrimm97, Nikson.

Джерело:


 Трекер:    Зареєстрований   

Завантажити / скачати мультфільм українською



відео для новачків



 Зареєстрований:   2015-08-03 22:52
 Розмір:   4.18 GB 
 Оцінка мультфільму:   5/10 (Голосів: 22)
   
igor911 
Відео Гуртом
Відео Гуртом


З нами з: 18.01.08
Востаннє: 17.08.17
Повідомлень: 7268

2015-08-05 14:38  
Vasua95, є проблеми з програванням цього ріпу на деяких "залізних" програвачах - не відтворюється взагалі. Можливо через
Vasua95 написано:
Frame rate mode : Variable
.
Drool 
VIP


З нами з: 17.04.10
Востаннє: 16.08.17
Повідомлень: 1366

2015-08-06 16:51  
ValicV написано:
А чому бітрейд маленький?
Для мультика він навіть зависокий. Для такого відеоряду має сенс пробувати тиснути не в 2 проходи, а з crf=21-19, максимум 18. Така графіка тиснеться добре.
igor911 
Відео Гуртом
Відео Гуртом


З нами з: 18.01.08
Востаннє: 17.08.17
Повідомлень: 7268

2015-09-17 15:45  
Drool, так. Бітрейта в 3500 при crf=16.6 вистачило, щоб мати такі кванти
frame I:1312 Avg QP:11.27 size:142679
frame P:33200 Avg QP:13.37 size: 35360
frame B:95216 Avg QP:16.10 size: 11243

*720ка з рутрекера
Додано через 5 хвилин 33 секунди:

можна було б навіть з оригіналом в ДТС влізти у 3,5 Гб.

Ваш часовий пояс: GMT + 2 Години

Нова тема   Відповісти