Робот Чаппі / Chappie (2015) [640x270]

Нові коментарі

Нова тема   Відповісти
Останній раз роздавалося DmitryA (2018-07-31)
Автор Повідомлення
DmitryA 
Новенький


З нами з: 15.08.12
Востаннє: 12.09.18
Повідомлень: 23

2015-08-03 21:03  
Робот Чаппі / Chappie (2015) [640x270]

Робот Чаппі / Chappie (2015) [640x270]


Жанр: екшн, фантастика, трилер
Країна: США, Мексика, Південна Африка



Кінокомпанія: Columbia Pictures, Media Rights Capital, LStar Capital
Режисер: Ніл Бломкемп
Актори: Шарлто Коплі, Дев Патель, Йоланда Фіссер, Хосе Пабло Кантільйо, Г’ю Джекмен, Сіґурні Вівер, Брендон Оре, Джонні Селема, Андерсон Купер

Сюжет:
Чаппі - вундеркінд. Як і будь-яка інша дитина, він потрапляє під вплив свого оточення, і тільки його серце і душа допоможуть йому знайти свій шлях. Але є одна річ, яка робить Чаппі несхожим на всіх інших: він - перший робот, здатний відчувати і думати...


Тривалість: 02:00:19
Якість:
Відео:
кодек: MPEG-4 SP
розмір кадру: 640 x 266
бітрейт: 1100 кб/с

Аудіо:
мова: українська
переклад: професійний дубльований
кодек: 2.0
бітрейт: 128 кб/с
Скріншоти





Звіт Info
General
Complete name : Chappie.2015..360p.[Hurtom].m4v
Format : MPEG-4
Codec ID : M4V
File size : 1.03 GiB
Duration : 2h 0mn
Overall bit rate mode : Variable
Overall bit rate : 1 227 Kbps
Encoded date : UTC 2015-07-08 06:08:23
Tagged date : UTC 2015-07-08 06:08:23

Video
ID : 1
Format : MPEG-4 Visual
Format profile : [email protected]
Format settings, BVOP : No
Format settings, QPel : No
Format settings, GMC : No warppoints
Format settings, Matrix : Default (H.263)
Codec ID : 20
Duration : 2h 0mn
Bit rate mode : Variable
Bit rate : 1 097 Kbps
Maximum bit rate : 5 197 Kbps
Width : 640 pixels
Height : 266 pixels
Display aspect ratio : 2.40:1
Frame rate mode : Constant
Frame rate : 23.976 fps
Color space : YUV
Chroma subsampling : 4:2:0
Bit depth : 8 bits
Scan type : Progressive
Compression mode : Lossy
Bits/(Pixel*Frame) : 0.269
Stream size : 944 MiB (89%)
Writing library : 1.2.1 (UTC 2008-12-04)
Encoded date : UTC 2015-07-08 06:08:23
Tagged date : UTC 2015-07-08 06:08:29

Audio
ID : 2
Format :
Format/Info : Advanced Audio Codec
Format profile : LC
Codec ID : 40
Duration : 2h 0mn
Bit rate mode : Variable
Bit rate : 128 Kbps
Maximum bit rate : 137 Kbps
Channel(s) : 2 channels
Channel positions : Front: L R
Sampling rate : 48.0 KHz
Compression mode : Lossy
Stream size : 110 MiB (10%)
Encoded date : UTC 2015-07-08 06:08:26
Tagged date : UTC 2015-07-08 06:08:29
Джерело:
Особиста оцінка: 10 - без зайвих вагань рекомендую всім!


 Трекер:    Зареєстрований   

Завантажити / скачати торрент



відео для новачків



 Зареєстрований:   2015-08-03 21:03
 Розмір:   1.03 GB 
 Оцінка:   10/10 (Голосів: 5)
   
Інші релізи
   Робот Чаппі / Chappie (2015) Remux 1080p Ukr/Eng | Sub Ukr/Eng staf777  1 / 0   21.98 GB   2018-06-12 15:35 
   Робот Чаппі / Chappie (2015) 4K 2160p H.265 Ukr/Eng | Sub Ukr/Eng HI-FI SOUND  2 / 0   48.96 GB   2016-12-31 22:10 
   Робот Чаппі / Chappie (2015) 1080p Ukr/Eng | Sub Ukr/Eng 11FrYkT  2 / 0   13.33 GB   2015-09-25 07:00 
   Робот Чаппі / Chappie (2015) 720p-mini (60 fps) Ukr | Sub Ukr Drool  0 / 0   5.33 GB   2015-07-13 15:44 
   Робот Чаппі / Chappie (2015) 720p Ukr/Eng | Sub Ukr/Eng 11FrYkT  8 / 0   4.75 GB   2015-06-09 21:36 
   Робот Чаппі / Chappie (2015) 720p-mini Drool  4 / 0   2.57 GB   2015-06-09 10:27 
   Робот Чаппі / Chappie (2015) patriot2305  12 / 0   1.46 GB   2015-06-07 04:08 
   Робот Чаппі / Chappie (2015) Ukr/Eng | Sub Ukr/Eng Gelios  6 / 0   2.18 GB   2015-06-06 16:53 
   Робот Чаппі / Chappie (2015) AVC Ukr/Eng | Sub Ukr/Eng Gelios  3 / 0   1.68 GB   2015-06-06 16:52 
bot 
робот


З нами з: 30.09.07
Востаннє: 26.05.05
Повідомлень: 19813

2015-08-03 21:03  
Тему перенесено з Фільми до форуму Відео для мобільних (iOS, Android, Windows Phone)


DmitryA

Ваш часовий пояс: GMT + 2 Години

Нова тема   Відповісти