Доріан Грей / Dorian Gray (2009) [640x360]

Нові коментарі

Нова тема   Відповісти
Останній раз роздавалося DmitryA (2019-05-14)
Автор Повідомлення
DmitryA 
Новенький


З нами з: 15.08.12
Востаннє: 21.05.19
Повідомлень: 23

2015-08-03 19:57  
Доріан Грей / Dorian Gray (2009) [640x360]

Доріан Грей / Dorian Gray (2009) [640x360]


Жанр: драма, трилер , фантастика
Країна: Великобританія



Кінокомпанія: Fragile Films
Режисер: Олівер Паркер
Актори: Колін Ферт, Бен Барнс, Рейчел Херд-Вуд, Ребекка Холл, Бен Чаплін

Сюжет:
Молодий і неймовірно красивий Доріан Грей приїжджає до Лондона і потрапляє під вплив шукача пригод лорда Уоттона. Він переконав хлопця, що секрет успіху і щастя Доріана — в його красі, адже вона допоможе отримати всі задоволення світу. Доріан укладає угоду з Дияволом. Хлопець замовляє свій портрет, і тепер весь бруд його життя, повного розпусти і злочинних пристрастей, бруднитиме і псуватиме полотно, його ж власне обличчя залишиться вічно юним і прекрасним.

Фільм знято за мотивами роману Оскара Уайльда «Портрет Доріана Грея»


Тривалість: 01:52:15
Якість:
Відео:
кодек: MPEG-4 SP
розмір кадру: 640x346
бітрейт: 1100 кб/с

Аудіо:
мова: українська
переклад: професійний дубльований
кодек: 2.0
бітрейт: 128 кб/с
Скріншоти





Звіт Info
General
Complete name : Dorian.Gray.2009.m4v
Format : MPEG-4
Codec ID : M4V
File size : 984 MiB
Duration : 1h 52mn
Overall bit rate mode : Variable
Overall bit rate : 1 226 Kbps
Encoded date : UTC 2015-07-31 00:36:43
Tagged date : UTC 2015-07-31 00:36:43

Video
ID : 1
Format : MPEG-4 Visual
Format profile : [email protected]
Format settings, BVOP : No
Format settings, QPel : No
Format settings, GMC : No warppoints
Format settings, Matrix : Default (H.263)
Codec ID : 20
Duration : 1h 52mn
Bit rate mode : Variable
Bit rate : 1 095 Kbps
Maximum bit rate : 10.5 Mbps
Width : 640 pixels
Height : 346 pixels
Display aspect ratio : 1.85:1
Frame rate mode : Constant
Frame rate : 23.976 fps
Color space : YUV
Chroma subsampling : 4:2:0
Bit depth : 8 bits
Scan type : Progressive
Compression mode : Lossy
Bits/(Pixel*Frame) : 0.206
Stream size : 879 MiB (89%)
Writing library : 1.2.1 (UTC 2008-12-04)
Encoded date : UTC 2015-07-31 00:36:43
Tagged date : UTC 2015-07-31 00:36:49

Audio
ID : 2
Format :
Format/Info : Advanced Audio Codec
Format profile : LC
Codec ID : 40
Duration : 1h 52mn
Bit rate mode : Variable
Bit rate : 128 Kbps
Maximum bit rate : 138 Kbps
Channel(s) : 2 channels
Channel positions : Front: L R
Sampling rate : 48.0 KHz
Compression mode : Lossy
Stream size : 103 MiB (10%)
Encoded date : UTC 2015-07-31 00:36:47
Tagged date : UTC 2015-07-31 00:36:49
Джерело:
Особиста оцінка: 10 - без зайвих вагань рекомендую всім!


 Трекер:    Зареєстрований   

Завантажити / скачати торрент



відео для новачків



 Зареєстрований:   2015-08-03 19:57
 Розмір:   984 MB 
 Оцінка:   10/10 (Голосів: 1)
   
Інші релізи
   Доріан Грей / Dorian Gray (2009) 1080p 2xUkr/Eng | Sub Eng drop_plz  2 / 0   10.39 GB   2018-09-24 10:32 
   Доріан Грей / Dorian Gray (2009) 720p Ukr/Eng | Sub Eng braveboy  4 / 0   4.36 GB   2012-02-10 03:56 
   Доріан Грей / Dorian Gray (2009) Ukr/Eng braveboy  4 / 0   1.99 GB   2010-11-06 23:51 
   Доріан Грей / Dorian Gray (2009) antik_2008  1 / 0   1.7 GB   2010-03-02 03:48 
   Доріан Грей / Dorian Gray (2009) DVD9 Ukr/Rus | Ліцензія antik_2008  2 / 0   7.47 GB   2010-03-02 00:59 
bot 
робот


З нами з: 30.09.07
Востаннє: 26.05.05
Повідомлень: 21374

2015-08-03 19:59  
Тему перенесено з Фільми до форуму Відео для мобільних (iOS, Android, Windows Phone)


DmitryA

Ваш часовий пояс: GMT + 2 Години

Нова тема   Відповісти