Лісовий патруль (Ploddy the Police Car on the Case ) / Pelle Politibil på sporet (2013) 720p Ukr/Nor

Нові коментарі

Нова тема   Відповісти
Автор Повідомлення
Anonymous 







2015-07-25 17:36  
Лісовий патруль / Pelle Politibil på sporet (2013) 720p Ukr/Nor



Альтернативний постер


повнорозмірне зображення відкриється по кліку (з натиснутим CTRL чи кліком середньою кнопкою мишки - у іншій вкладці)


Жанр: анімація, сімейний
Країна: Норвегія



Кінокомпанія: Neofilm
Режисер: Расмус А. Сівертсен / Rasmus A. Sivertsen
Актори: Гард. Б. Ейдсвольд, Лене Конгсвік Йохансен, Хеге Шеен, Емілі Нордл

Сюжет:
З національного заповідника викрадають головне його надбання – орла рідкісної породи. Та під час викрадення вдається врятуватися його пташеняті. Патрульна машина Плодді разом із вірними друзями поспішає на допомогу. Їм належить з'ясувати, хто ж цей підступний викрадач, а заодно і доглянути за малюком, поки не знайдеться його мама.


Вікова категорія: 0+

Тривалість: 01:09:50
Якість: 720p
Відео:
кодек:
розмір кадру: 1280 х 712
бітрейт: 4002 кбіт/с

Аудіо # 1:
мова: українська
переклад: багатоголосий закадровий - студія ААА-sound
кодек: 2.0
бітрейт: 192 кбіт/с
Інформація про озвучення

Режисер: Олександр Єфімов
Ролі озвучили: Андрій Федінчик, Юлія Перенчук, Андрій Альохін, Анастасія Зіновенко, Ярослав Чорненький, Ірина Грей, Юрій Ребрик, Олександр Єфімов та інші.

Фільм озвучено студією ААА-sound у 2014 році на замовлення компанії "Каскад-Україна".
Аудіо # 2:
мова: норвезька
переклад: оригінал
кодек: 5.1
бітрейт: 384 кбіт/с

Збережено оригінальні розділи
Info
Код:
General
Unique ID                   : 210418165944270858304155531332952974870 (0x9E4D108DC9B2987491036A15D51AE616)
Complete name               : Pelle Politibil pa sporet (2013) [Ukr,Nor] 720p [Hurtom].
Format                      :
Format version              : Version 4 / Version 2
File size                   : 2.23 GiB
Duration                    : 1h 9mn
Overall bit rate            : 4 579 Kbps
Movie name                  : Лісовий патруль / Pelle Politibil på sporet (2013) [Ukr,Nor] 720p [Hurtom]
Encoded date                : UTC 2015-07-25 13:12:59
Writing application         : mkvmerge v8.2.0 ('World of Adventure') 64bit
Writing library             : libebml v1.3.1 + libmatroska v1.4.2
Attachements                : cover.jpg
DURATION                    : 01:09:49.920000000
NUMBER_OF_FRAMES            : 130935
NUMBER_OF_BYTES             : 100558080
_STATISTICS_WRITING_APP     : mkvmerge v8.2.0 ('World of Adventure') 64bit
_STATISTICS_WRITING_DATE_UT : 2015-07-25 13:12:59
_STATISTICS_TAGS            : BPS DURATION NUMBER_OF_FRAMES NUMBER_OF_BYTES

Video
ID                          : 1
Format                      : AVC
Format/Info                 : Advanced Video Codec
Format profile              : [email protected]
Format settings, CABAC      : Yes
Format settings, ReFrames   : 8 frames
Codec ID                    : V_MPEG4/ISO/AVC
Duration                    : 1h 9mn
Bit rate                    : 4 002 Kbps
Width                       : 1 280 pixels
Height                      : 712 pixels
Display aspect ratio        : 16:9
Frame rate mode             : Constant
Frame rate                  : 25.000 fps
Color space                 : YUV
Chroma subsampling          : 4:2:0
Bit depth                   : 8 bits
Scan type                   : Progressive
Bits/(Pixel*Frame)          : 0.176
Stream size                 : 1.91 GiB (85%)
Title                       : Лісовий патруль / Pelle Politibil på sporet (2013) 720p
Writing library             : core 130 r2273 b3065e6
Encoding settings           : cabac=1 / ref=8 / deblock=1:-1:-1 / analyse=0x3:0x133 / me=umh / subme=7 / psy=1 / psy_rd=1.00:0.10 / mixed_ref=1 / me_range=16 / chroma_me=1 / trellis=2 / 8x8dct=1 / cqm=0 / deadzone=21,11 / fast_pskip=0 / chroma_qp_offset=-3 / threads=6 / lookahead_threads=1 / sliced_threads=0 / nr=0 / decimate=1 / interlaced=0 / bluray_compat=0 / constrained_intra=0 / bframes=3 / b_pyramid=2 / b_adapt=2 / b_bias=0 / direct=3 / weightb=1 / open_gop=0 / weightp=2 / keyint=250 / keyint_min=25 / scenecut=40 / intra_refresh=0 / rc_lookahead=50 / rc=2pass / mbtree=1 / bitrate=4002 / ratetol=1.0 / qcomp=0.60 / qpmin=0 / qpmax=69 / qpstep=4 / cplxblur=20.0 / qblur=0.5 / ip_ratio=1.40 / aq=1:1.00
Language                    : Norwegian
Default                     : Yes
Forced                      : Yes

Audio #1
ID                          : 2
Format                      : AC-3
Format/Info                 : Audio Coding 3
Mode extension              : CM (complete main)
Format settings, Endianness : Big
Codec ID                    : A_AC3
Duration                    : 1h 9mn
Bit rate mode               : Constant
Bit rate                    : 192 Kbps
Channel(s)                  : 2 channels
Channel positions           : Front: L R
Sampling rate               : 48.0 KHz
Compression mode            : Lossy
Stream size                 : 95.9 MiB (4%)
Title                       : MVO [AAA-sound-Megogo] 2.0 192 kbps [Hurtom-Vasua95]
Language                    : Ukrainian
Default                     : Yes
Forced                      : Yes

Audio #2
ID                          : 3
Format                      : AC-3
Format/Info                 : Audio Coding 3
Mode extension              : CM (complete main)
Format settings, Endianness : Big
Codec ID                    : A_AC3
Duration                    : 1h 9mn
Bit rate mode               : Constant
Bit rate                    : 384 Kbps
Channel(s)                  : 6 channels
Channel positions           : Front: L C R, Side: L R, LFE
Sampling rate               : 48.0 KHz
Compression mode            : Lossy
Stream size                 : 192 MiB (8%)
Title                       : Original 5.1 384 kbps
Language                    : Norwegian
Default                     : No
Forced                      : No

Menu
00:00:00.000                : en:Kapittel 01
00:10:00.000                : en:Kapittel 02
00:20:00.000                : en:Kapittel 03
00:30:00.000                : en:Kapittel 04
00:40:00.000                : en:Kapittel 05
00:50:00.000                : en:Kapittel 06




Джерела та подяки:
українська доріжка - з релізу Vasua95 (Гуртом).



ЗАЛИШАЙТЕСЬ ЯКОМОГА ДОВШЕ НА РОЗДАЧІ!

СКАЧАВ САМ - ДАЙ СКАЧАТИ ІНШИМ


 Трекер:    Зареєстрований   

Завантажити / скачати мультфільм українською



відео для новачків



 Зареєстрований:   2015-07-25 17:36
 Розмір:   2.23 GB 
 Оцінка мультфільму:   5.5/10 (Голосів: 21)
   
Інші релізи
   Лісовий патруль / Pelle Politibil på sporet (2013) AngryBirdsUA  13 / 0   1.09 GB   2015-07-19 14:45 
котермак 
Свій


З нами з: 16.08.11
Востаннє: 18.08.17
Повідомлень: 71

2015-08-01 22:02  
Дякую !
Anonymous 







2015-08-01 22:37  
котермак, будь ласка. До речі, для подяк є кнопка "Дякую" у секції завантаження торрента.
Ваш часовий пояс: GMT + 2 Години

Нова тема   Відповісти