Чорний тюльпан / La tulipe noire (1964) AVC 2xUkr/Fre

Нові коментарі

Нова тема   Відповісти
Автор Повідомлення
Arsenfpu 
Відео Гуртом - фільмокрай
Відео Гуртом - фільмокрай


З нами з: 30.04.09
Востаннє: 18.10.19
Повідомлень: 6150

2015-07-08 23:38  
Чорний тюльпан / La tulipe noire (1964) AVC 2xUkr/Fre

Чорний тюльпан / La tulipe noire (1964) AVC 2xUkr/Fre


Жанр: пригодницький, комедія
Країна: Франція, Італія, Іспанія



Режисер: Christian-Jaque
Актори: Ален Делон, Вірна Лізі, Адольфо Марсійяк, Дон Адамс, Акім Тамірофф, Лаура Валенсуела, Жорж Ріго, Франсіс Бланш, Хосе Хаспе, Перла Крістал

Сюжет:
Напередодні Французької революції в тихій провінції моторошний страх наводить на знатних мерзотників таємничий розбійник в масці, чиїм фірмовим знаком став чорний тюльпан. Невловимий месник меткий, безстрашний, благородний і розумний, він прекрасний наїзник і геній фехтування. Дворянин Жульєн - безтурботний хлопчина, дурний і боягузливий - зовсім на нього не схожий. Але ніхто не знає, що є щось, міцно зв'язує цих двох.


Тривалість: 01:53:30
Якість:
Відео:
кодек:
розмір кадру: 1 024 х 448
бітрейт: 2 499 кб/с

Аудіо #1:
мова: українська
переклад: багатоголосий закадровий
кодек: 2.0
бітрейт: 192 кб/с

Аудіо #2:
мова: українська
переклад: багатоголосий закадровий ,
кодек: 2.0
бітрейт: 192 кб/с

Аудіо #1:
мова: французька
переклад: оригінал
кодек: 2.0
бітрейт: 192 кб/с
Про файл
General
Unique ID : 26347255811133306821492164669490559094 (0x13D24C011BB09117E1C46CC013EF7876)
Format :
Format version : Version 4 / Version 2
File size : 2.44 GiB
Duration : 1 h 53 min
Overall bit rate : 3 078 kb/s
Movie name : Чорний тюльпан / La tulipe noire (1964)
Encoded date : UTC 2019-09-27 16:33:56
Writing application : v21.0.0 ('Tardigrades Will Inherit The Earth') 32-bit
Writing library : libebml v1.3.5 + v1.4.8
Cover : Yes
Attachments : cover.jpg

Video
ID : 1
Format : AVC
Format/Info : Advanced Video Codec
Format profile : [email protected]
Format settings, CABAC : Yes
Format settings, ReFrames : 4 frames
Codec ID : V_MPEG4/ISO/AVC
Duration : 1 h 53 min
Bit rate : 2 499 kb/s
Width : 1 024 pixels
Height : 448 pixels
Display aspect ratio : 2.25:1
Frame rate mode : Constant
Frame rate : 24.000 FPS
Color space : YUV
Chroma subsampling : 4:2:0
Bit depth : 8 bits
Scan type : Progressive
Bits/(Pixel*Frame) : 0.227
Stream size : 1.98 GiB (81%)
Writing library : core 157 r2935 545de2f
Encoding settings : cabac=1 / ref=3 / deblock=1:-1:-1 / analyse=0x3:0x113 / me=hex / subme=7 / psy=1 / psy_rd=1.00:0.15 / mixed_ref=1 / me_range=16 / chroma_me=1 / trellis=1 / 8x8dct=1 / cqm=0 / deadzone=21,11 / fast_pskip=1 / chroma_qp_offset=-3 / threads=12 / lookahead_threads=2 / sliced_threads=0 / nr=0 / decimate=1 / interlaced=0 / bluray_compat=0 / constrained_intra=0 / bframes=3 / b_pyramid=2 / b_adapt=1 / b_bias=0 / direct=1 / weightb=1 / open_gop=0 / weightp=2 / keyint=240 / keyint_min=24 / scenecut=40 / intra_refresh=0 / rc_lookahead=40 / rc=2pass / mbtree=1 / bitrate=2499 / ratetol=1.0 / qcomp=0.60 / qpmin=0 / qpmax=69 / qpstep=4 / cplxblur=20.0 / qblur=0.5 / ip_ratio=1.40 / aq=1:1.00
Default : Yes
Forced : No

Audio #1
ID : 2
Format : AC-3
Format/Info : Audio Coding 3
Mode extension : CM (complete main)
Format settings, Endianness : Big
Codec ID : A_AC3
Duration : 1 h 53 min
Bit rate mode : Constant
Bit rate : 192 kb/s
Channel(s) : 2 channels
Channel positions : Front: L R
Sampling rate : 48.0 kHz
Frame rate : 31.250 FPS (1536 spf)
Compression mode : Lossy
Stream size : 156 MiB (6%)
Title : Інтер
Language : Ukrainian
Default : Yes
Forced : Yes

Audio #2
ID : 3
Format : AC-3
Format/Info : Audio Coding 3
Mode extension : CM (complete main)
Format settings, Endianness : Big
Codec ID : A_AC3
Duration : 1 h 53 min
Bit rate mode : Constant
Bit rate : 192 kb/s
Channel(s) : 2 channels
Channel positions : Front: L R
Sampling rate : 48.0 kHz
Frame rate : 31.250 FPS (1536 spf)
Compression mode : Lossy
Stream size : 156 MiB (6%)
Title : Київ
Language : Ukrainian
Default : No
Forced : No

Audio #3
ID : 4
Format : AC-3
Format/Info : Audio Coding 3
Mode extension : CM (complete main)
Format settings, Endianness : Big
Codec ID : A_AC3
Duration : 1 h 53 min
Bit rate mode : Constant
Bit rate : 192 kb/s
Channel(s) : 2 channels
Channel positions : Front: L R
Sampling rate : 48.0 kHz
Frame rate : 31.250 FPS (1536 spf)
Compression mode : Lossy
Stream size : 156 MiB (6%)
Language : French
Default : No
Forced : No
Скріншоти














Джерело: & Ex.ua
За українські доріжки дякую п. РОМЕО, Bohdan237, kryk-v.ya.
Особиста оцінка: приємно бачити відомих акторів молодими...


Срібний реліз (на рейтинг впливає 50% завантаженого)
 Трекер:    Зареєстрований   

Завантажити / скачати фільм українською



відео для новачків



 Зареєстрований:   2019-09-27 19:49
 Розмір:   2.44 GB 
 Оцінка фільму:   9.6/10 (Голосів: 9)
   
Інші релізи
Highlander007 
Частий відвідувач


З нами з: 22.07.13
Востаннє: 17.10.19
Повідомлень: 27

2015-07-10 00:22  
Суперовий фільм, кращий за Зорро
dreamer 
VIP


З нами з: 10.05.08
Востаннє: 18.10.19
Повідомлень: 522

2015-07-12 14:33  
гарний фільм,бачив багато разів й з задоволенням подивися знов..
Arsenfpu 
Відео Гуртом - фільмокрай
Відео Гуртом - фільмокрай


З нами з: 30.04.09
Востаннє: 18.10.19
Повідомлень: 6150

2019-09-27 19:50  
Реліз оновлено!
Відео змінено на та додано озвучення від Інтера

kryk-v.ya. 
VIP


З нами з: 14.02.14
Востаннє: 18.10.19
Повідомлень: 1643

2019-09-27 20:10  
класне історичне костюмоване кіно...дякую.
pasport22 
Частий відвідувач


З нами з: 30.10.14
Востаннє: 17.10.19
Повідомлень: 49

2019-09-28 19:37  
Arsenfpu
Цитата:
Невловимий месник меткий,
"рукаліцо"
igor911 
Модератор відео


З нами з: 18.01.08
Востаннє: 18.10.19
Повідомлень: 13536

2019-09-28 19:56  
pasport22 написано:
"рукаліцо"

http://sum.in.ua/s/metkyj

Додано через 1 хвилину 4 секунди:

Цитата:
МЕТКИ́Й, а, е.
1. Швидкий і вправний у роботі, дії (про людину); проворний.

hatak 
Свій


З нами з: 30.04.15
Востаннє: 18.10.19
Повідомлень: 121

2019-09-29 14:11  
Цікавий фільм, який може виконувати об’єднавчу роль одразу для декількох поколінь. Сюжет легко прогнозується, популяризуються правильні цінності, на першому плані ідея влади народу та революції. Як і завжди, вражають натурні зйомки, хоча оскільки фільм знімався у Франції та Іспанії, це може трохи заплутати глядача з огляду досить контрастні природні умови. Захоплюєшся грою акторів, яких багато в кадрі, масою реквізиту, залученого до епізодів. По хорошому веселять бійки та фехтування. Ален Делон красень без сумніву, але мене порадувало побачити Дона Адамса, який морщить лоба точно так само як в “Шпигунських пристрастях” (“Get Smart”) колись на ICTV. Проводити аналогії із “Зорро” 1975 року складно, бо між ними десять років та і дух у фільмів різний, але подивитись варто обидва. Зараз враження від фільму можуть бути і без надто великого захоплення, але обізнані люди кажуть, що дивитись його у 70-х роках по чорно-білому телевізору — “то була рвань”.
pasport22 
Частий відвідувач


З нами з: 30.10.14
Востаннє: 17.10.19
Повідомлень: 49

2019-09-29 20:13  
igor911 на роки увагу звернули?
юбочка, рюкзак, держати, сковорідка, плаття, костьол, білет та галстук там теж є...

Ваш часовий пояс: GMT + 2 Години

Нова тема   Відповісти