Бруклін 9-9 (Сезон 1) / Brooklyn Nine-Nine (Season 1) (2013-2014) 720p Ukr/Eng

Нові коментарі

Нова тема   Відповісти
Автор Повідомлення
Dark Invader 
Модератор відео


З нами з: 06.01.11
Востаннє: 19.08.19
Повідомлень: 2711

2015-06-30 23:21  
Бруклін 9-9 (Сезон 1) / Brooklyn Nine-Nine (Season 1) (2013-2014) 720p Ukr/Eng

Бруклін 9-9 (Сезон 1) / Brooklyn Nine-Nine (Season 1) (2013-2014) 720p Ukr/Eng


Жанр: комедія, кримінальний
Країна: США



Кінокомпанія: Fremulon, Dr. Goor Productions, Lord Miller, 3 Arts Entertainment, Universal Television / Fox
Режисери: Філ Лорд, Кріс Міллер, Джейсон Енслер
Актори: Енді Семберґ, Андре Броґер, Террі Крюс, Мелісса Фумеро, Джо Ло Трулі, Стефані Беатріз, Джейд Або, Фред Армізен, Дірк Блокер, Річард Фінкельштейн та інші

Сюжет:
Історія про те, що відбувається, коли у детектива, який не сприймає нічого серйозно, з'являється новий керівник, який хоче, щоб він ріс і з повагою ставився до своєї посади.


Тривалість: 1 серія: ~ 22 хв. (цілком серій: 22)
Перелік серій
01. Pilot
02. The Tagger
03. The Slump
04. M.E. Time
05. The Vulture
06. Halloween
07. 48 Hours
08. Old School
09. Sal's Pizza
10. Thanksgiving
11. Christmas
12. Pontiac Bandit
13. The Bet
14. The Ebony Falcon
15. Operation: Broken Feather
16. The Party
17. Full Boyle
18. The Apartment
19. Tactical Village
20. Fancy Brudgom
21. Unsolvable
22. Charges and Specs
Якість:
Відео:
кодек:
розмір кадру: 1 280 х 720
бітрейт: ~ 4 000 кб/с

Аудіо # 1:
мова: українська
переклад: багатоголосий закадровий
кодек: 2.0
бітрейт: 192 кб/с

Аудіо # 2:
мова: англійська
переклад: оригінал
кодек: 5.1
бітрейт: 384 кб/с

Переклад і озвучення виконано:
на студії каналу , трансляція на телеканалі
Інформація про озвучення:
Ролі озвучили: Андрій Федінчик, Михайло Войчук і Катерина Буцька. У деяких серіях заміняли чи доповнювали Юлія Перенчук, Анастасія Зіновенко і ще один чоловічий голос.

Info
General
Unique ID : 238257366848083445115182564860170599508 (0xB33EB32165CD17BF8A59630B47FBFC54)
Complete name : D:\Нова папка\Brooklyn Nine-Nine - Season 1 (2013-2014) 720p [Ukr, Eng] [Hurtom]\Brooklyn Nine-Nine - S01E01 (2013-2014) 720p [Ukr, Eng] [Hurtom].
Format :
Format version : Version 4 / Version 2
File size : 753 MiB
Duration : 22mn 45s
Overall bit rate : 4 626 Kbps
Encoded date : UTC 2015-06-30 19:10:30
Writing application : v8.0.0 ('Til The Day That I Die') 32bit
Writing library : libebml v1.3.1 + v1.4.2
DURATION : 00:22:45.088000000
NUMBER_OF_FRAMES : 42659
NUMBER_OF_BYTES : 32762112
_STATISTICS_WRITING_APP : v8.0.0 ('Til The Day That I Die') 32bit
_STATISTICS_WRITING_DATE_UTC : 2015-06-30 19:10:30
_STATISTICS_TAGS : BPS DURATION NUMBER_OF_FRAMES NUMBER_OF_BYTES

Video
ID : 1
Format : AVC
Format/Info : Advanced Video Codec
Format profile : [email protected]
Format settings, CABAC : No
Format settings, ReFrames : 2 frames
Codec ID : V_MPEG4/ISO/AVC
Duration : 22mn 45s
Bit rate : 3 958 Kbps
Width : 1 280 pixels
Height : 720 pixels
Display aspect ratio : 16:9
Frame rate mode : Constant
Frame rate : 23.976 fps
Color space : YUV
Chroma subsampling : 4:2:0
Bit depth : 8 bits
Scan type : Progressive
Bits/(Pixel*Frame) : 0.179
Stream size : 644 MiB (86%)
Language : English
Default : Yes
Forced : No
Color range : Limited
Color primaries : BT.709
Transfer characteristics : BT.709
Matrix coefficients : BT.709

Audio #1
ID : 2
Format : AC-3
Format/Info : Audio Coding 3
Mode extension : CM (complete main)
Format settings, Endianness : Big
Codec ID : A_AC3
Duration : 22mn 45s
Bit rate mode : Constant
Bit rate : 192 Kbps
Channel(s) : 2 channels
Channel positions : Front: L R
Sampling rate : 48.0 KHz
Compression mode : Lossy
Stream size : 31.2 MiB (4%)
Title : НЛО ТБ
Language : Ukrainian
Default : Yes
Forced : No

Audio #2
ID : 3
Format : AC-3
Format/Info : Audio Coding 3
Mode extension : CM (complete main)
Format settings, Endianness : Big
Codec ID : A_AC3
Duration : 22mn 45s
Bit rate mode : Constant
Bit rate : 384 Kbps
Channel(s) : 6 channels
Channel positions : Front: L C R, Side: L R, LFE
Sampling rate : 48.0 KHz
Compression mode : Lossy
Stream size : 62.5 MiB (8%)
Language : English
Default : No
Forced : No
Торрент-файл оновлено (10.07.2015)
Додано 9-22 серії.
Повний сезон!


Скріншоти:


Джерело:
Особиста оцінка: 10 - без зайвих вагань рекомендую всім!

Цитата:
Подяки:
За запис slavik_v_z.
За синхронізацію Gelios.
За постер Gelios.


Бронзовий реліз (на рейтинг впливає 75% завантаженого)
 Трекер:    Зареєстрований   

Завантажити / скачати серіал українською



відео для новачків



 Зареєстрований:   2015-07-10 23:17
 Розмір:   15.6 GB 
 Оцінка серіалу:   9.2/10 (Голосів: 17)
   
Dark Invader 
Модератор відео


З нами з: 06.01.11
Востаннє: 19.08.19
Повідомлень: 2711

2015-07-10 23:18  
Торрент-файл оновлено (10.07.2015)
Додано 9-22 серії.
Повний сезон!

Estranded 
VIP


З нами з: 09.02.14
Востаннє: 19.08.19
Повідомлень: 1394

2015-07-12 09:37  
другий сезон показують?
Gelios 
VIP


З нами з: 03.09.11
Востаннє: 04.06.19
Повідомлень: 2076

2015-07-12 12:14  
Estranded написано:
другий сезон показують?

Ні.

segafredo 
Новенький


З нами з: 10.04.16
Востаннє: 15.08.19
Повідомлень: 10

2016-04-10 01:05  
дякую
igor911 
Модератор відео


З нами з: 18.01.08
Востаннє: 19.08.19
Повідомлень: 13124

2016-04-10 01:08  
segafredo, для "дякую" є однойменна кнопка у блоці завантаження, натискай її замість писати повідомлення.
stifffffler 
Новенький


З нами з: 18.04.11
Востаннє: 19.08.19
Повідомлень: 1

2018-09-25 13:44  
Чи міг би хтось стати на роздачу?
Ваш часовий пояс: GMT + 2 Години

Нова тема   Відповісти