Холодний Яр. Воля України - або смерть! (2014) 720p

Нові коментарі

Нова тема   Відповісти
Автор Повідомлення
Roman-f 
Поважний учасник


З нами з: 28.12.13
Востаннє: 04.10.17
Повідомлень: 186

2015-06-25 17:17  
Холодний Яр. Воля України - або смерть! (2014) 720p

Холодний Яр. Воля України - або смерть! (2014) 720p


Жанр: документальний, історичний
Країна: Україна

Кінокомпанія: ВГО “Не будь байдужим!” та ТОВ “Диваки продакшн”
Режисер: Галина Химич
Сюжет:
Україна, 1919 рік. На Чигиринщині з центром у Холодному Яру діють повстанські загони прихильників УНР, що ведуть боротьбу проти загарбників (німецьких окупантів та російських “білих” і “червоних” інтервентів).
Двадцять два села піднімають повстання і стають для червоних територією, куди більшовиків не пускають.
Білогвардійські полки генерала Денікіна також не можуть увійти до Холодного Яру. Білі здатні воювати з регулярною армією противника, але виявляються безсилими проти місцевих повстанців. Тут проти них воюють всі - від старого до малого.
Історія надзвичайної боротьби українців, про яку досьогодні відомо так мало. Понад 30 тисяч українських повстанців кілька років тримали в страху більшовицьку армію.


Тривалість: 00:25:29
Якість:
Відео:
кодек:
розмір кадру: 1280 х 720
бітрейт: 2519 кб/с

Аудіо:
мова: українська, російська
переклад: оригінал
кодек: 2.0
бітрейт: 192 кб/с
Info
General
Complete name : /media/admin/Диск1/Холодний Яр. Воля України або смерть (2014).mp4
Format : MPEG-4
Format profile : Base Media / Version 2
Codec ID : mp42
File size : 495 MiB
Duration : 25mn 29s
Overall bit rate mode : Variable
Overall bit rate : 2 714 Kbps
Encoded date : UTC 2015-01-27 07:16:05
Tagged date : UTC 2015-01-27 07:16:05
gsst : 0
gstd : 1529428
gssd : B4A7DDA28HM1435232451963012
gshh : r8---sn-4g57kuel.googlevideo.com

Video
ID : 1
Format : AVC
Format/Info : Advanced Video Codec
Format profile : High@L3.1
Format settings, CABAC : Yes
Format settings, ReFrames : 1 frame
Codec ID : avc1
Codec ID/Info : Advanced Video Coding
Duration : 25mn 29s
Bit rate : 2 519 Kbps
Maximum bit rate : 9 301 Kbps
Width : 1 280 pixels
Height : 720 pixels
Display aspect ratio : 16:9
Frame rate mode : Constant
Frame rate : 25.000 fps
Color space : YUV
Chroma subsampling : 4:2:0
Bit depth : 8 bits
Scan type : Progressive
Bits/(Pixel*Frame) : 0.109
Stream size : 459 MiB (93%)
Tagged date : UTC 2015-01-27 07:16:34

Audio
ID : 2
Format :
Format/Info : Advanced Audio Codec
Format profile : LC
Codec ID : 40
Duration : 25mn 29s
Bit rate mode : Variable
Bit rate : 192 Kbps
Maximum bit rate : 201 Kbps
Channel(s) : 2 channels
Channel positions : Front: L R
Sampling rate : 44.1 KHz
Compression mode : Lossy
Stream size : 35.0 MiB (7%)
Title : IsoMedia File Produced by Google, 5-11-2011
Encoded date : UTC 2015-01-27 07:16:23
Tagged date : UTC 2015-01-27 07:16:34
Скріншоти
Джерело:
Особиста оцінка: 0 - не дивився


Золотий реліз (завантажене не впливає на рейтинг)
 Трекер:    Зареєстрований   

Завантажити / скачати фільм українською



відео для новачків



 Зареєстрований:   2015-06-25 17:17
 Розмір:   495 MB 
 Оцінка фільму:   9.9/10 (Голосів: 11)
   
Roman-f 
Поважний учасник


З нами з: 28.12.13
Востаннє: 04.10.17
Повідомлень: 186

2015-06-25 17:25  

igor911 
Відео Гуртом
Відео Гуртом


З нами з: 18.01.08
Востаннє: 18.10.17
Повідомлень: 7909

2015-06-26 16:43  
Можна також дивитись на ютубі:


Додано через 1 хвилину 52 секунди:

Хоч тут і HD, але українські док.фільми мають бути там - Українські історичні документальні фільми

bot 
робот


З нами з: 30.09.07
Востаннє: 26.05.05
Повідомлень: 17695

2015-06-26 16:43  
Ваш часовий пояс: GMT + 2 Години

Нова тема   Відповісти