Diezel DJ Power - Beauty and the Beast (2005) [FLAC] | Electronic / Futurepop

Нові коментарі

Нова тема   Відповісти
Останній раз роздавалося kolpavel (2017-08-16)
Автор Повідомлення
kolpavel 
VIP


З нами з: 04.05.14
Востаннє: 17.08.17
Повідомлень: 1156

2015-06-23 20:33  
Diezel DJ Power - Beauty and the Beast (2005) [FLAC] | Electronic / Futurepop

Diezel DJ Power - Beauty and the Beast (2005) [FLAC] | Electronic / Futurepop


Стиль: Electronic, Futurepop, Synthpop
Країна, місто: Україна, Київ
Видавець: Moon Records
Виконавці:
Diezel
Пісні:
    01. Intro
    02. DJ PWR
    03. TenDance DecaDance
    04. Who Are the Pop Kings in Town?!
    05. Fantomas
    06. Innocent Killah
    07. Samba De Libertad
    08. Viva Cuba!
    09. Endless Road
    10. Burning Guitar
    11. Help

    Bonus Video -
    12. TenDance DecaDance
    скан диска
    Diezel DJ Power - Beauty and the Beast (2005) [FLAC] | Electronic / Futurepop

Тривалість: 00:41:24
Мова: усі композиції інструментальні
Аудіо-кодек: FLAC
Бітрейт: 880-1024 кб/с
Джерело: Інтернет
Додаткова інформація:
Лог:
Exact Audio Copy V1.0 beta 3 from 29. August 2011

Отчёт EAC об извлечении, выполненном 2. января 2013, 2:24

Diezel DJ Power / Beauty and the Beast

Дисковод: HL-DT-STDVDRAM GH24NS90 Adapter: 2 ID: 1

Режим чтения : Достоверность
Использование точного потока : Да
Отключение кэша аудио : Да
Использование указателей C2 : Нет

Коррекция смещения при чтении : 6
Способность читать области Lead-in и Lead-out : Нет
Заполнение пропущенных сэмплов тишиной : Да
Удаление блоков с тишиной в начале и конце : Нет
При вычислениях CRC использовались нулевые сэмплы : Да
Интерфейс : Встроенный Win32-интерфейс для Win NT/2000
Обработка зазоров : Добавлено к предыдущему треку

Выходной формат : Пользовательский кодировщик
Выбранный битрейт : 768 kBit/s
Качество : Высокий
Добавление ID3-тега : Нет
Утилита сжатия : C:\Program Files\Exact Audio Copy\FLAC\FLAC.EXE
Дополнительные параметры : -V -8 -T "Genre=%genre%" -T "Artist=%artist%" -T "Title=%title%" -T "Album=%albumtitle%" -T "Date=%year%" -T "Tracknumber=%tracknr%" -T "Comment=%comment%" %source%

TOC извлечённого CD

Трек | Старт | Длительность | Начальный сектор | Конечный сектор
---------------------------------------------------------------------
1 | 0:00.00 | 1:44.12 | 0 | 7811
2 | 1:44.12 | 3:32.20 | 7812 | 23731
3 | 5:16.32 | 3:51.32 | 23732 | 41088
4 | 9:07.64 | 4:14.27 | 41089 | 60165
5 | 13:22.16 | 3:43.03 | 60166 | 76893
6 | 17:05.19 | 4:40.15 | 76894 | 97908
7 | 21:45.34 | 3:42.02 | 97909 | 114560
8 | 25:27.36 | 3:15.28 | 114561 | 129213
9 | 28:42.64 | 3:52.12 | 129214 | 146625
10 | 32:35.01 | 4:19.62 | 146626 | 166112
11 | 36:54.63 | 4:32.65 | 166113 | 186577
12 | 43:59.53 | 14:14.00 | 197978 | 262027

Трек 1

Имя файла F:\РАЗДАЧИ\DATA\Diezel DJ Power - Beauty and the Beast 2005\01 - Intro.wav

Длина предзазора 0:00:02.00

Пиковый уровень 95.0 %
Скорость извлечения 0.8 X
Качество трека 100.0 %
CRC теста 1F756C2E
CRC копии 1F756C2E
Копирование... OK

Трек 2

Имя файла F:\РАЗДАЧИ\DATA\Diezel DJ Power - Beauty and the Beast 2005\02 - DJ PWR.wav

Пиковый уровень 96.6 %
Скорость извлечения 1.1 X
Качество трека 100.0 %
CRC теста C3E7B3D8
CRC копии C3E7B3D8
Копирование... OK

Трек 3

Имя файла F:\РАЗДАЧИ\DATA\Diezel DJ Power - Beauty and the Beast 2005\03 - TenDance DecaDance.wav

Пиковый уровень 96.6 %
Скорость извлечения 1.0 X
Качество трека 99.9 %
CRC теста E70B7C04
CRC копии E70B7C04
Копирование... OK

Трек 4

Имя файла F:\РАЗДАЧИ\DATA\Diezel DJ Power - Beauty and the Beast 2005\04 - Who Are The Pop Kings In Town!.wav

Пиковый уровень 95.9 %
Скорость извлечения 1.3 X
Качество трека 100.0 %
CRC теста AC979565
CRC копии AC979565
Копирование... OK

Трек 5

Имя файла F:\РАЗДАЧИ\DATA\Diezel DJ Power - Beauty and the Beast 2005\05 - Fantomas.wav

Пиковый уровень 96.6 %
Скорость извлечения 1.3 X
Качество трека 100.0 %
CRC теста EC0C80CB
CRC копии EC0C80CB
Копирование... OK

Трек 6

Имя файла F:\РАЗДАЧИ\DATA\Diezel DJ Power - Beauty and the Beast 2005\06 - Innocent Killah.wav

Пиковый уровень 96.6 %
Скорость извлечения 1.3 X
Качество трека 99.9 %
CRC теста 18014900
CRC копии 18014900
Копирование... OK

Трек 7

Имя файла F:\РАЗДАЧИ\DATA\Diezel DJ Power - Beauty and the Beast 2005\07 - Samba De Libertad.wav

Пиковый уровень 97.5 %
Скорость извлечения 1.5 X
Качество трека 100.0 %
CRC теста F62B56CF
CRC копии F62B56CF
Копирование... OK

Трек 8

Имя файла F:\РАЗДАЧИ\DATA\Diezel DJ Power - Beauty and the Beast 2005\08 - Viva Cuba!.wav

Пиковый уровень 98.0 %
Скорость извлечения 1.6 X
Качество трека 100.0 %
CRC теста FA0FB1B3
CRC копии FA0FB1B3
Копирование... OK

Трек 9

Имя файла F:\РАЗДАЧИ\DATA\Diezel DJ Power - Beauty and the Beast 2005\09 - Endless Road.wav

Пиковый уровень 94.7 %
Скорость извлечения 1.7 X
Качество трека 100.0 %
CRC теста 7DD93EA9
CRC копии 7DD93EA9
Копирование... OK

Трек 10

Имя файла F:\РАЗДАЧИ\DATA\Diezel DJ Power - Beauty and the Beast 2005\10 - Burning Guitar.wav

Пиковый уровень 95.9 %
Скорость извлечения 1.8 X
Качество трека 100.0 %
CRC теста 6530452F
CRC копии 6530452F
Копирование... OK

Трек 11

Имя файла F:\РАЗДАЧИ\DATA\Diezel DJ Power - Beauty and the Beast 2005\11 - Help (DZL PWR mix).wav

Пиковый уровень 96.5 %
Скорость извлечения 1.7 X
Качество трека 99.9 %
CRC теста D10AF140
CRC копии D10AF140
Копирование... OK

Ошибок не произошло

Конец отчёта

==== Контрольная сумма отчёта 2DED42F2A477222168F2F42CBEA5E42DEBF8BAA1BDA2408EF1DCE18B6A279916 ====
(.CUE):
REM GENRE Electronic
REM DATE 2005
REM DISCID 950DA50C
REM COMMENT "ExactAudioCopy v1.0b3"
PERFORMER "Diezel DJ Power"
TITLE "Beauty and the Beast "
FILE "01 - Intro.wav" WAVE
TRACK 01 AUDIO
TITLE "Intro"
PERFORMER "Diezel DJ Power"
FLAGS DCP
INDEX 01 00:00:00
FILE "02 - DJ PWR.wav" WAVE
TRACK 02 AUDIO
TITLE "DJ PWR"
PERFORMER "Diezel DJ Power"
FLAGS DCP
INDEX 01 00:00:00
FILE "03 - TenDance DecaDance.wav" WAVE
TRACK 03 AUDIO
TITLE "TenDance DecaDance"
PERFORMER "Diezel DJ Power"
FLAGS DCP
INDEX 01 00:00:00
FILE "04 - Who Are The Pop Kings In Town!.wav" WAVE
TRACK 04 AUDIO
TITLE "Who Are The Pop Kings In Town?!"
PERFORMER "Diezel DJ Power"
FLAGS DCP
INDEX 01 00:00:00
FILE "05 - Fantomas.wav" WAVE
TRACK 05 AUDIO
TITLE "Fantomas"
PERFORMER "Diezel DJ Power"
FLAGS DCP
INDEX 01 00:00:00
FILE "06 - Innocent Killah.wav" WAVE
TRACK 06 AUDIO
TITLE "Innocent Killah"
PERFORMER "Diezel DJ Power"
FLAGS DCP
INDEX 01 00:00:00
FILE "07 - Samba De Libertad.wav" WAVE
TRACK 07 AUDIO
TITLE "Samba De Libertad"
PERFORMER "Diezel DJ Power"
FLAGS DCP
INDEX 01 00:00:00
FILE "08 - Viva Cuba!.wav" WAVE
TRACK 08 AUDIO
TITLE "Viva Cuba!"
PERFORMER "Diezel DJ Power"
FLAGS DCP
INDEX 01 00:00:00
FILE "09 - Endless Road.wav" WAVE
TRACK 09 AUDIO
TITLE "Endless Road"
PERFORMER "Diezel DJ Power"
FLAGS DCP
INDEX 01 00:00:00
FILE "10 - Burning Guitar.wav" WAVE
TRACK 10 AUDIO
TITLE "Burning Guitar"
PERFORMER "Diezel DJ Power"
FLAGS DCP
INDEX 01 00:00:00
FILE "11 - Help (DZL PWR mix).wav" WAVE
TRACK 11 AUDIO
TITLE "Help (DZL PWR mix)"
PERFORMER "Diezel DJ Power"
FLAGS DCP
INDEX 01 00:00:00
TRACK 12 MODEx/2xxx
TITLE "+BONUS VIDEO"
PERFORMER "Diezel DJ Power"
INDEX 00 04:32:65
(.CUE)-EDIT:
REM GENRE Electronic
REM DATE 2005
REM DISCID 950DA50C
REM COMMENT "ExactAudioCopy v1.0b3"
PERFORMER "Diezel DJ Power"
TITLE "Beauty and the Beast "
FILE "01 - Intro.wav" WAVE
TRACK 01 AUDIO
TITLE "Intro"
PERFORMER "Diezel DJ Power"
FLAGS DCP
INDEX 01 00:00:00
FILE "02 - DJ PWR.wav" WAVE
TRACK 02 AUDIO
TITLE "DJ PWR"
PERFORMER "Diezel DJ Power"
FLAGS DCP
INDEX 01 00:00:00
FILE "03 - TenDance DecaDance.wav" WAVE
TRACK 03 AUDIO
TITLE "TenDance DecaDance"
PERFORMER "Diezel DJ Power"
FLAGS DCP
INDEX 01 00:00:00
FILE "04 - Who Are The Pop Kings In Town!.wav" WAVE
TRACK 04 AUDIO
TITLE "Who Are The Pop Kings In Town?!"
PERFORMER "Diezel DJ Power"
FLAGS DCP
INDEX 01 00:00:00
FILE "05 - Fantomas.wav" WAVE
TRACK 05 AUDIO
TITLE "Fantomas"
PERFORMER "Diezel DJ Power"
FLAGS DCP
INDEX 01 00:00:00
FILE "06 - Innocent Killah.wav" WAVE
TRACK 06 AUDIO
TITLE "Innocent Killah"
PERFORMER "Diezel DJ Power"
FLAGS DCP
INDEX 01 00:00:00
FILE "07 - Samba De Libertad.wav" WAVE
TRACK 07 AUDIO
TITLE "Samba De Libertad"
PERFORMER "Diezel DJ Power"
FLAGS DCP
INDEX 01 00:00:00
FILE "08 - Viva Cuba!.wav" WAVE
TRACK 08 AUDIO
TITLE "Viva Cuba!"
PERFORMER "Diezel DJ Power"
FLAGS DCP
INDEX 01 00:00:00
FILE "09 - Endless Road.wav" WAVE
TRACK 09 AUDIO
TITLE "Endless Road"
PERFORMER "Diezel DJ Power"
FLAGS DCP
INDEX 01 00:00:00
FILE "10 - Burning Guitar.wav" WAVE
TRACK 10 AUDIO
TITLE "Burning Guitar"
PERFORMER "Diezel DJ Power"
FLAGS DCP
INDEX 01 00:00:00
FILE "11 - Help (DZL PWR mix).wav" WAVE
TRACK 11 AUDIO
TITLE "Help (DZL PWR mix)"
PERFORMER "Diezel DJ Power"
FLAGS DCP
INDEX 01 00:00:00
EXTRA:
Duration: 00:04:08
Format: MPEG-PS
File size: 125 MiB

Video: MPEG1 Video 720x576 (2500:1831) 25fps [Video]
Bit rate mode: Variable
Bit rate: 3 808 Kbps
Display aspect ratio: 4:3

Audio: MPEG Audio 48000Hz stereo 320kbps [Audio]
Diezel DJ Power - Beauty and the Beast (2005) [FLAC] | Electronic / Futurepop


Якщо Ви справді бажаєте підтримати українське - після прослуховування, якщо музика вам сподобалась, придбайте ліцензійний диск. Підтримаймо вітчизняних виконавців!


Срібний реліз (на рейтинг впливає 50% завантаженого)
 Трекер:    Зареєстрований   

Завантажити / скачати українську музику



відео для новачків



 Зареєстрований:   2015-06-23 20:33
 Розмір:   425 MB 
 Оцінка музики:   5.5/10 (Голосів: 2)
   
Ваш часовий пояс: GMT + 2 Години

Нова тема   Відповісти